<?xml version="1.0" standalone="no"?>
<!DOCTYPE svg PUBLIC "-//W3C//DTD SVG 1.1//EN" "http://www.w3.org/Graphics/SVG/1.1/DTD/svg11.dtd" >
<svg xmlns="http://www.w3.org/2000/svg">
<metadata>Generated by IcoMoon</metadata>
<defs>
<font id="icomoon" horiz-adv-x="1024">
<font-face units-per-em="1024" ascent="960" descent="-64" />
<missing-glyph horiz-adv-x="1024" />
<glyph unicode="&#x20;" horiz-adv-x="512" d="" />
<glyph unicode="&#xe900;" glyph-name="archive-outline" d="M877.714 850.286c40.396 0 73.143-32.747 73.143-73.143v-219.429h-73.143v-438.857c0-40.396-32.747-73.143-73.143-73.143h-585.143c-40.396 0-73.143 32.747-73.143 73.143v438.857h-73.143v219.429c0 40.396 32.747 73.143 73.143 73.143h731.429zM804.571 557.714h-585.143v-438.857h585.143v438.857zM621.714 448h-219.429c-20.198 0-36.571-16.374-36.571-36.571s16.374-36.571 36.571-36.571h219.429c20.198 0 36.571 16.374 36.571 36.571s-16.374 36.571-36.571 36.571zM877.714 777.143h-731.429v-146.286h731.429v146.286z" />
<glyph unicode="&#xe901;" glyph-name="archive" d="M877.714 557.714v-438.857c0-40.396-32.747-73.143-73.143-73.143h-585.143c-40.396 0-73.143 32.747-73.143 73.143v438.857h731.429zM621.714 448h-219.429c-20.198 0-36.571-16.374-36.571-36.571s16.374-36.571 36.571-36.571h219.429c20.198 0 36.571 16.374 36.571 36.571s-16.374 36.571-36.571 36.571zM877.714 850.286h-731.429c-40.396 0-73.143-32.747-73.143-73.143v-146.286h877.714v146.286c0 40.396-32.747 73.143-73.143 73.143z" />
<glyph unicode="&#xe902;" glyph-name="arrow-down-outline" d="M622.693 923.429h-221.385v-612.389l-192.407 152.119-135.757-173.866 370.553-292.976 7.29-5.261c40.963-26.389 92.338-23.977 129.318 5.261l370.553 292.976-135.757 173.866-192.407-152.082v612.352zM548.898 850.286v-691.113l253.671 200.544 45.421-58.149-313.704-248.071c-12.117-9.58-28.779-10.363-41.646-2.090l-4.36 3.169-312.305 246.956 45.421 58.185 253.708-200.544v691.113h73.795z" />
<glyph unicode="&#xe904;" glyph-name="arrow-down-sm" d="M566.857 813.714v-567.735l169.304 128.878 68.41-84.377-258.366-196.729c-20.076-15.286-48.335-15.286-68.41 0l-258.366 196.729 68.41 84.377 169.304-128.878v567.735h109.714z" />
<glyph unicode="&#xe905;" glyph-name="arrow-down" d="M585.143 886.857v-651.739l221.069 176.311 89.789-116.019-339.106-270.503c-24.467-19.517-58.196-20.911-83.986-4.182l-5.803 4.182-339.106 270.503 89.789 116.019 221.069-176.311v651.739h146.286z" />
<glyph unicode="&#xe906;" glyph-name="arrow-left-outline" d="M987.351 337.385v221.385h-612.389l152.119 192.407-173.866 135.757-292.976-370.553-5.261-7.29c-26.389-40.963-23.977-92.338 5.261-129.318l292.976-370.553 173.866 135.757-152.082 192.407h612.352zM914.208 411.18h-691.113l200.544-253.671-58.149-45.421-248.071 313.704c-9.58 12.117-10.363 28.779-2.090 41.646l3.169 4.36 246.956 312.305 58.185-45.421-200.544-253.708h691.113v-73.795z" />
<glyph unicode="&#xe907;" glyph-name="arrow-left" d="M950.857 374.857h-651.739l176.311-221.069-116.019-89.789-270.503 339.106c-19.517 24.467-20.911 58.196-4.182 83.986l4.182 5.803 270.503 339.106 116.019-89.789-176.311-221.069h651.739v-146.286z" />
<glyph unicode="&#xe908;" glyph-name="arrow-right-outline" d="M36.649 558.771v-221.385h612.389l-152.119-192.407 173.866-135.757 292.976 370.553 5.261 7.29c26.389 40.963 23.977 92.338-5.261 129.318l-292.976 370.553-173.866-135.757 152.082-192.407h-612.352zM109.792 484.976h691.113l-200.544 253.671 58.149 45.421 248.071-313.704c9.58-12.117 10.363-28.779 2.090-41.646l-3.169-4.36-246.956-312.305-58.185 45.421 200.544 253.708h-691.113v73.795z" />
<glyph unicode="&#xe909;" glyph-name="arrow-right" d="M73.143 374.857h651.739l-176.311-221.069 116.019-89.789 270.503 339.106c19.517 24.467 20.911 58.196 4.182 83.986l-4.182 5.803-270.503 339.106-116.019-89.789 176.311-221.069h-651.739v-146.286z" />
<glyph unicode="&#xe90a;" glyph-name="arrow-up-outline" d="M444.005 899.788c36.839 29.109 87.93 31.507 127.229 6.255l1.48-1.003 7.282-5.252 370.873-293.052-135.676-173.657-193.515 152.942 0.037-613.449h-219.429l-0.037 613.413-193.442-152.906-135.676 173.657zM527.665 846.751c-12.389 5.905-27.255 4.385-38.313-4.353l-313.809-247.93 45.605-58.405 254.281 200.912v-691.261h73.143v691.261l254.245-200.912 45.605 58.405-312.348 246.86-4.726 3.398z" />
<glyph unicode="&#xe90c;" glyph-name="arrow-up-sm" d="M457.143 82.286v567.735l-169.304-128.878-68.41 84.377 258.366 196.729c20.076 15.286 48.335 15.286 68.41 0l258.366-196.729-68.41-84.377-169.304 128.878v-567.735h-109.714z" />
<glyph unicode="&#xe90d;" glyph-name="arrow-up" d="M552.953 875.275l6.079-4.182 355.254-270.503-94.064-116.019-235.079 178.981v-654.409h-146.286v654.409l-235.079-178.981-94.064 116.019 355.254 270.503c25.632 19.517 60.967 20.911 87.985 4.182z" />
<glyph unicode="&#xe90e;" glyph-name="aspect-ratio-outline" d="M914.286 850.286c60.594 0 109.714-49.121 109.714-109.714v-585.143c0-60.594-49.121-109.714-109.714-109.714h-804.571c-60.594 0-109.714 49.121-109.714 109.714v585.143c0 60.594 49.121 109.714 109.714 109.714h804.571zM914.286 777.143h-804.571c-18.755 0-34.213-14.118-36.325-32.306l-0.246-4.265v-585.143c0-18.755 14.118-34.213 32.306-36.325l4.265-0.246h804.571c18.755 0 34.213 14.118 36.325 32.306l0.246 4.265v585.143c0 18.755-14.118 34.213-32.306 36.325l-4.265 0.246zM877.714 374.857v-146.286c0-18.755-14.118-34.213-32.306-36.325l-4.265-0.246h-146.286v73.143h109.714v109.714h73.143zM329.143 704v-73.143h-109.714v-109.714h-73.143v146.286c0 18.755 14.118 34.213 32.306 36.325l4.265 0.246h146.286z" />
<glyph unicode="&#xe90f;" glyph-name="aspect-ratio" d="M914.286 850.286c60.594 0 109.714-49.121 109.714-109.714v-585.143c0-60.594-49.121-109.714-109.714-109.714h-804.571c-60.594 0-109.714 49.121-109.714 109.714v585.143c0 60.594 49.121 109.714 109.714 109.714h804.571zM877.714 374.857h-73.143v-109.714h-109.714v-73.143h146.286l4.265 0.246c18.188 2.113 32.306 17.57 32.306 36.325v146.286zM329.143 704h-146.286l-4.265-0.246c-18.188-2.113-32.306-17.57-32.306-36.325v-146.286h73.143v109.714h109.714v73.143z" />
<glyph unicode="&#xe910;" glyph-name="bag-checkmark-outline" d="M780.247 667.429c58.576 0 106.821-46.015 109.592-104.525l20.779-438.857c2.866-60.526-43.877-111.915-104.403-114.781-0.865-0.034-1.441-0.057-1.921-0.073l-581.32-0.050c-60.594 0-109.714 49.121-109.714 109.714l0.018 1.922 20.884 442.124c2.77 58.511 51.015 104.525 109.592 104.525zM780.247 594.286h-536.494c-19.525 0-35.607-15.338-36.531-34.842l-20.82-440.587c0-20.198 16.374-36.571 36.571-36.571l584.031 0.488c18.068 2.97 31.439 19.079 30.552 37.813l-20.779 438.857c-0.923 19.504-17.005 34.842-36.531 34.842zM646.966 437.883c13.486-12.873 14.982-33.589 4.164-48.191l-2.961-3.515-139.636-146.286c-13.299-13.932-34.852-15.004-49.42-3.215l-3.488 3.215-79.792 83.592c-13.946 14.61-13.408 37.76 1.202 51.706 13.486 12.873 34.249 13.405 48.332 1.919l3.374-3.122 53.308-55.852 113.212 118.545c13.946 14.61 37.096 15.149 51.706 1.202zM512 886.857c149.786 0 206.845-84.49 217.512-260.398l1.077-21.997c0.284-7.485 0.494-15.123 0.633-22.914l0.207-23.833c0-20.198-16.374-36.571-36.571-36.571s-36.571 16.374-36.571 36.571l-0.176 22.8c-0.059 3.698-0.134 7.346-0.224 10.944l-0.731 20.987c-0.309 6.798-0.683 13.398-1.127 19.806l-1.543 18.646c-11.428 117.475-50.523 162.817-142.485 162.817s-131.057-45.342-142.485-162.817l-1.543-18.646c-0.444-6.407-0.818-13.008-1.127-19.806l-0.731-20.987c-0.090-3.598-0.164-7.245-0.224-10.944l-0.176-22.8c0-20.198-16.374-36.571-36.571-36.571s-36.571 16.374-36.571 36.571c0 16.196 0.271 31.777 0.839 46.747l1.077 21.997c10.667 175.909 67.726 260.398 217.512 260.398z" />
<glyph unicode="&#xe911;" glyph-name="bag-checkmark" d="M298.018 667.414c-1.498-13.054-2.666-26.705-3.53-40.955l-1.077-21.997c-0.568-14.97-0.839-30.551-0.839-46.747 0-20.198 16.374-36.571 36.571-36.571s36.571 16.374 36.571 36.571l0.176 22.8c0.059 3.698 0.134 7.346 0.224 10.944l0.731 20.987c0.309 6.798 0.683 13.398 1.127 19.806l1.543 18.646c0.553 5.684 1.171 11.199 1.856 16.549h281.258c0.685-5.349 1.303-10.865 1.856-16.549l1.543-18.646c0.444-6.407 0.818-13.008 1.127-19.806l0.731-20.987c0.090-3.598 0.164-7.245 0.224-10.944l0.176-22.8c0-20.198 16.374-36.571 36.571-36.571s36.571 16.374 36.571 36.571l-0.207 23.833c-0.139 7.791-0.349 15.429-0.633 22.914l-1.077 21.997c-0.864 14.25-2.033 27.901-3.53 40.955l54.266 0.015c58.576 0 106.821-46.015 109.592-104.525l20.779-438.857c2.866-60.526-43.877-111.915-104.403-114.781-0.865-0.034-1.441-0.057-1.921-0.073l-581.32-0.050c-60.594 0-109.714 49.121-109.714 109.714l0.018 1.922 20.884 442.124c2.77 58.511 51.015 104.525 109.592 104.525zM646.966 437.883c-14.61 13.946-37.76 13.408-51.706-1.202l-113.212-118.545-53.308 55.852-3.374 3.122c-14.083 11.486-34.846 10.954-48.332-1.919-14.61-13.946-15.149-37.096-1.202-51.706l79.792-83.592 3.488-3.215c14.569-11.789 36.122-10.717 49.42 3.215l139.636 146.286 2.961 3.515c10.819 14.602 9.322 35.317-4.164 48.191zM512 886.857c137.651 0 196.992-71.355 213.982-219.443l-73.353 0.032c-13.479 105.208-53.116 146.269-140.629 146.269s-127.15-41.060-140.629-146.269l-73.353-0.032c16.99 148.088 76.33 219.443 213.982 219.443z" />
<glyph unicode="&#xe912;" glyph-name="bag-outline" d="M512 886.857c137.651 0 196.992-71.355 213.982-219.443l54.266 0.015c58.576 0 106.821-46.015 109.592-104.525l20.779-438.857c2.866-60.526-43.877-111.915-104.403-114.781-0.865-0.034-1.441-0.057-1.921-0.073l-581.32-0.050c-60.594 0-109.714 49.121-109.714 109.714l0.018 1.922 20.884 442.124c2.77 58.511 51.015 104.525 109.592 104.525l54.266-0.015c16.99 148.088 76.33 219.443 213.982 219.443zM780.247 594.286h-49.333l0.046-1.166c0.105-3.819 0.192-7.676 0.262-11.572l0.207-23.833c0-20.198-16.374-36.571-36.571-36.571s-36.571 16.374-36.571 36.571l-0.176 22.8c-0.059 3.698-0.134 7.346-0.224 10.944l-0.115 2.828h-291.584l-0.074-2.828c-0.090-3.598-0.164-7.245-0.224-10.944l-0.176-22.8c0-20.198-16.374-36.571-36.571-36.571s-36.571 16.374-36.571 36.571c0 12.567 0.163 24.763 0.502 36.591l-49.32-0.019c-19.525 0-35.607-15.338-36.531-34.842l-20.82-440.587c0-20.198 16.374-36.571 36.571-36.571l584.031 0.488c18.068 2.97 31.439 19.079 30.552 37.813l-20.779 438.857c-0.923 19.504-17.005 34.842-36.531 34.842zM512 813.714c-87.512 0-127.15-41.060-140.629-146.269h281.258c-13.479 105.208-53.116 146.269-140.629 146.269z" />
<glyph unicode="&#xe913;" glyph-name="bag" d="M298.018 667.414c-1.498-13.054-2.666-26.705-3.53-40.955l-1.077-21.997c-0.568-14.97-0.839-30.551-0.839-46.747 0-20.198 16.374-36.571 36.571-36.571s36.571 16.374 36.571 36.571l0.176 22.8c0.059 3.698 0.134 7.346 0.224 10.944l0.731 20.987c0.309 6.798 0.683 13.398 1.127 19.806l1.543 18.646c0.553 5.684 1.171 11.199 1.856 16.549h281.258c0.685-5.349 1.303-10.865 1.856-16.549l1.543-18.646c0.444-6.407 0.818-13.008 1.127-19.806l0.731-20.987c0.090-3.598 0.164-7.245 0.224-10.944l0.176-22.8c0-20.198 16.374-36.571 36.571-36.571s36.571 16.374 36.571 36.571l-0.207 23.833c-0.139 7.791-0.349 15.429-0.633 22.914l-1.077 21.997c-0.864 14.25-2.033 27.901-3.53 40.955l54.266 0.015c58.576 0 106.821-46.015 109.592-104.525l20.779-438.857c2.866-60.526-43.877-111.915-104.403-114.781-0.865-0.034-1.441-0.057-1.921-0.073l-581.32-0.050c-60.594 0-109.714 49.121-109.714 109.714l0.018 1.922 20.884 442.124c2.77 58.511 51.015 104.525 109.592 104.525zM512 886.857c137.651 0 196.992-71.355 213.982-219.443l-73.353 0.032c-13.479 105.208-53.116 146.269-140.629 146.269s-127.15-41.060-140.629-146.269l-73.353-0.032c16.99 148.088 76.33 219.443 213.982 219.443z" />
<glyph unicode="&#xe914;" glyph-name="bank-outline" d="M512 923.429c20.198 0 36.571-16.374 36.571-36.571h125.926c5.049 0 9.143-4.093 9.143-9.143 0-2.239-0.822-4.401-2.309-6.074l-35.236-39.64 35.236-39.64c3.355-3.774 3.015-9.553-0.759-12.908-1.674-1.488-3.835-2.309-6.074-2.309h-125.926l0.052-74.432c134.845-9.585 237.678-71.407 290.218-144.997h41.92c18.515 0 33.524-16.374 33.524-36.571v-36.571c0-20.198-15.009-36.571-33.524-36.571h-39.619v-292.571h36.571c40.396 0 73.143-32.747 73.143-73.143v-109.714h-877.714v109.714c0 40.396 32.747 73.143 73.143 73.143h36.571v292.571h-39.619c-18.515 0-33.524 16.374-33.524 36.571v36.571c0 20.198 15.009 36.571 33.524 36.571l41.914-0.010c52.542 73.6 155.392 135.431 290.26 145.008l0.017 184.144c0 20.198 16.374 36.571 36.571 36.571zM877.714 82.286h-731.429l-0.037-36.571h731.429l0.037 36.571zM731.429 448h-73.143v-292.571h73.143v292.571zM548.571 448h-73.143v-292.571h73.143v292.571zM365.714 448h-73.143v-292.571h73.143v292.571zM512 630.857c-94.183 0-175.251-30.821-228.006-73.152l455.989-0.003c-50.796 40.843-127.795 70.811-217.342 73.024l-10.641 0.131z" />
<glyph unicode="&#xe915;" glyph-name="bank" d="M512 923.429c20.198 0 36.571-16.374 36.571-36.571h125.926c5.049 0 9.143-4.093 9.143-9.143 0-2.239-0.822-4.401-2.309-6.074l-35.236-39.64 35.236-39.64c3.355-3.774 3.015-9.553-0.759-12.908-1.674-1.488-3.835-2.309-6.074-2.309h-125.926l0.052-74.432c134.845-9.585 237.678-71.407 290.218-144.997h41.92c18.515 0 33.524-16.374 33.524-36.571v-36.571c0-20.198-15.009-36.571-33.524-36.571h-39.619v-329.143h36.571c40.396 0 73.143-32.747 73.143-73.143v-73.143h-877.714v73.143c0 40.396 32.747 73.143 73.143 73.143h36.571v329.143h-39.619c-18.515 0-33.524 16.374-33.524 36.571v36.571c0 20.198 15.009 36.571 33.524 36.571l41.914-0.010c52.542 73.6 155.392 135.431 290.26 145.008l0.017 184.144c0 20.198 16.374 36.571 36.571 36.571zM731.429 448h-73.143v-329.143h73.143v329.143zM548.571 448h-73.143v-329.143h73.143v329.143zM365.714 448h-73.143v-329.143h73.143v329.143z" />
<glyph unicode="&#xe916;" glyph-name="bell-outline" d="M646.072 140.8h-268.144l0.164-6.571c3.487-69.66 62.106-125.086 133.908-125.086 74.046 0 134.072 58.945 134.072 131.657zM535.553 886.857c36.356 0 65.829-29.472 65.829-65.829l0.031-34.954c113.106-33.79 199.398-130.096 215.078-249.911l3.362-29.51c11.973-94.047 41.303-179.085 87.995-255.503 17.095-27.979-1.793-63.244-33.868-66.257l-4.454-0.207h-715.052c-34.738 0-56.194 37.214-38.322 66.465 46.9 76.759 76.284 162.216 88.155 256.763l3.369 29.501c16.115 119.232 102.196 214.985 214.906 248.659l0.037 34.955c0 36.356 29.472 65.829 65.829 65.829h47.106zM512 725.943c-114.703 0-211.601-81.040-230.39-188.716l-1.29-8.334-1.090-9.195c-9.252-92.919-33.623-178.738-73.159-257.233l-2.442-4.636h616.704l-2.202 4.238c-33.665 66.75-56.383 138.913-68.223 216.767l-2.733 19.582-2.405 21.282c-11.624 116.74-112.118 206.245-232.77 206.245z" />
<glyph unicode="&#xe917;" glyph-name="bell" d="M646.072 140.8h-268.144l0.164-6.571c3.487-69.66 62.106-125.086 133.908-125.086 74.046 0 134.072 58.945 134.072 131.657zM535.553 886.857h-47.106c-36.356 0-65.829-29.472-65.829-65.829l-0.037-34.955c-112.71-33.673-198.792-129.426-214.906-248.659l-1.228-10.47c-10.171-102.145-40.268-193.917-90.295-275.794-17.872-29.251 3.584-66.465 38.322-66.465h715.052c34.738 0 56.194 37.214 38.322 66.465-46.692 76.418-76.023 161.456-87.995 255.503l-2.3 20.291c-12.355 124.080-100.151 224.483-216.148 259.132l-0.024 34.951c0 36.356-29.472 65.829-65.829 65.829z" />
<glyph unicode="&#xe918;" glyph-name="bollard-outline" d="M391.095 301.605h-114.871l-56.795-182.791h-91.429c-30.297 0-54.857-24.551-54.857-54.835s24.56-54.835 54.857-54.835h768c30.297 0 54.857 24.551 54.857 54.835s-24.56 54.835-54.857 54.835h-91.429l-56.832 182.791h-114.907l56.839-182.791h-355.377l56.8 182.791zM656.823 594.066h-289.682l-56.832-182.784h403.346l-56.832 182.784zM533.701 883.546c-38.577 11.98-79.565-9.568-91.55-48.13l-40.925-131.672h221.513l-40.889 131.672c-7.145 22.988-25.152 40.988-48.149 48.13z" />
<glyph unicode="&#xe919;" glyph-name="bollard" d="M713.618 411.429h-403.273l-90.917-292.571h-91.429c-30.297 0-54.857-24.56-54.857-54.857s24.56-54.857 54.857-54.857h768c30.297 0 54.857 24.56 54.857 54.857s-24.56 54.857-54.857 54.857h-91.429l-90.953 292.571zM533.701 883.546c-38.577 11.98-79.565-9.568-91.55-48.127l-74.937-241.133h289.573l-74.937 241.133c-7.145 22.987-25.152 40.985-48.149 48.127z" />
<glyph unicode="&#xe91a;" glyph-name="book-open-outline" d="M836.051 825.344c25.454-12.136 41.664-37.824 41.664-66.022l-0.014-26.626c28.046-3.757 57.436-8.858 88.17-15.304 33.872-7.104 58.13-36.976 58.13-71.586v-517.355c0-20.198-16.374-36.571-36.571-36.571-2.64 0-5.272 0.286-7.851 0.853-79.234 17.416-149.76 26.123-211.578 26.123-73.143 0-158.476-12.19-256-36.571-97.524 24.381-182.857 36.571-256 36.571-61.818 0-132.343-8.708-211.576-26.123-19.727-4.338-39.235 8.14-43.571 27.867-0.567 2.579-0.853 5.211-0.853 7.851v517.355c0 34.609 24.258 64.481 58.13 71.585 30.753 6.449 60.16 11.553 88.221 15.311l-0.065 33.897c0 26.118 13.927 50.255 36.54 63.325 41.655 24.077 90.427 26.801 146.317 8.17 57.242-19.081 114.484-60.561 171.727-124.44l4.662-5.247c43.041 66.86 93.959 110.089 152.754 129.687 59.255 19.752 118.51 15.501 177.765-12.751zM877.691 658.852l0.023-394.935c0-20.198-16.373-36.572-36.571-36.572-2.413 0-4.82 0.239-7.186 0.713-58.557 11.734-117.114 7.842-175.671-11.677-25.909-8.636-50.289-20.332-73.139-35.087l-0.004-8.092 8.139 1.529c57.064 10.335 109.916 16.055 158.632 17.095l16.086 0.173c50.626 0 105.855-5.256 165.782-15.683l17.075-3.115v472.604l-18.624 3.766c-18.803 3.658-36.985 6.75-54.542 9.279zM91.767 649.573l-18.624-3.766v-472.568l17.076 3.079c53.269 9.268 102.825 14.45 148.735 15.488l17.046 0.195c48.043 0 100.254-4.734 156.713-14.138-27.847 16.407-55.709 29.232-83.57 38.519-52.782 17.594-99.215 22.492-139.301 14.693-19.826-3.858-39.026 9.088-42.883 28.914-0.448 2.301-0.673 4.64-0.673 6.984l0.046 391.883c-17.564-2.53-35.753-5.623-54.564-9.282zM224.681 769.382l-5.253-2.782 0.015-26.99 0.034-73.247-0.050 0.006v-358.741l3.663 0.141c36.377 0.671 74.915-5.352 115.556-17.662l13.625-4.336c29.154-9.718 58.034-22.593 86.659-38.581l4.312-2.433c2.426-1.383 4.851-2.788 7.274-4.216l-11.622 6.628c6.018-3.361 12.025-6.859 18.021-10.495 2.387-1.406 4.764-2.87 7.139-4.355l11.374-7.343v405.28l-3.019 3.821c-33.34 41.556-65.844 73.812-97.22 97.079-20.991 15.606-41.477 27.147-61.37 34.757l-7.806 2.794c-34.197 11.399-59.963 10.984-81.332 0.676zM681.416 768.706c-23.843-7.948-46.541-21.941-68.023-42.429l-0.644-0.656c-5.165-4.954-10.259-10.285-15.281-16-0.432-0.475-0.874-0.982-1.316-1.492l1.316 1.492c-2.429-2.764-4.84-5.617-7.235-8.561l5.919 7.069c-2.479-2.864-4.94-5.821-7.383-8.873l1.464 1.804c-2.336-2.871-4.655-5.828-6.958-8.872l5.495 7.067c-2.744-3.428-5.466-6.975-8.166-10.642l2.671 3.575c-2.524-3.335-5.028-6.774-7.513-10.317l4.842 6.742c-2.361-3.207-4.704-6.506-7.030-9.897l2.188 3.155c-2.147-3.061-4.279-6.201-6.396-9.419l4.208 6.264c-4.807-7.009-9.541-14.414-14.199-22.221l-6.709-11.613-4.093-7.49v-392.704l2.545 1.642c4.282 2.665 8.61 5.245 12.985 7.74l-12.985-7.742c5.333 3.319 10.738 6.506 16.213 9.562 3.103 1.734 6.252 3.436 9.423 5.094 1.659 0.865 3.302 1.71 4.951 2.542 1.133 0.574 2.276 1.144 3.421 1.709 12.113 5.97 24.593 11.343 37.397 16.090l12.633 4.446c51.728 17.243 103.961 24.396 156.202 21.361l13.213-1.004 0.023 360.231-0.038 73.251 0.015 0.011v19.701l-9.047 4.067c-39.037 16.474-75.995 18.022-114.109 5.317z" />
<glyph unicode="&#xe91b;" glyph-name="book-open" d="M987.276 709.248c22.228-12.763 36.724-36.687 36.724-63.441v-517.355c0-20.198-16.374-36.571-36.571-36.571-2.64 0-5.272 0.286-7.851 0.853-79.234 17.416-149.76 26.123-211.578 26.123-67.918 0-146.348-10.511-235.289-31.534l-20.711-5.038c-97.524 24.381-182.857 36.571-256 36.571-61.818 0-132.343-8.708-211.576-26.123-19.727-4.338-39.235 8.14-43.571 27.867-0.567 2.579-0.853 5.211-0.853 7.851v517.355c0 26.755 14.497 50.678 36.725 63.441l0.527-381.417c3.873-33.627 22.192-61.486 47.699-78.685 23.281-15.698 52.499-21.572 82.291-16.726 76.354 12.419 222.344-39.973 308.221-113.064l-0.034-0.5 0.628-0.007c13.695-11.709 25.843-23.945 35.914-36.528 10.11 12.561 22.274 24.811 35.987 36.533l0.614 0.001-0.022 0.503c83.038 70.661 222.246 121.976 300.397 114.085l7.834-1.025c29.793-4.846 59.010 1.029 82.291 16.726 25.507 17.198 43.826 45.057 47.699 78.685l0.506 381.417zM292.571 838.095c60.959-20.32 121.919-66.042 182.878-137.167l-0.015-523.156c-60.954 54.183-121.909 91.433-182.863 111.751-52.782 17.594-99.215 22.492-139.301 14.693-19.826-3.858-39.026 9.088-42.883 28.914-0.448 2.301-0.673 4.64-0.673 6.984v426.485c0 26.118 13.927 50.255 36.54 63.325 41.655 24.077 90.427 26.801 146.317 8.17zM872.622 825.344c25.454-12.136 41.664-37.824 41.664-66.022v-422.262c0-20.198-16.373-36.572-36.571-36.572-2.413 0-4.82 0.239-7.186 0.713-58.557 11.734-117.114 7.842-175.671-11.677-55.88-18.627-104.645-51.484-146.295-98.572l0.024 527.26c41.644 61.299 90.402 101.26 146.271 119.883 59.255 19.752 118.51 15.501 177.765-12.751z" />
<glyph unicode="&#xe91c;" glyph-name="book-outline" d="M768 886.857c60.594 0 109.714-49.121 109.714-109.714v-512c0-60.594-49.121-109.714-109.714-109.714h-548.571v-36.571c0-18.755 14.118-34.213 32.306-36.325l4.265-0.246h585.143c20.198 0 36.571-16.374 36.571-36.571 0-18.755-14.118-34.213-32.306-36.325l-4.265-0.246h-585.143c-58.429 0-106.191 45.675-109.528 103.268l-0.186 6.447v694.857c0 40.396 32.747 73.143 73.143 73.143h548.571zM768 813.714h-365.714v-585.143h365.714c18.755 0 34.213 14.118 36.325 32.306l0.246 4.265v512c0 18.755-14.118 34.213-32.306 36.325l-4.265 0.246zM329.143 813.714h-109.714v-585.143h109.714v585.143zM658.286 704c20.198 0 36.571-16.374 36.571-36.571s-16.374-36.571-36.571-36.571h-109.714c-20.198 0-36.571 16.374-36.571 36.571s16.374 36.571 36.571 36.571h109.714z" />
<glyph unicode="&#xe91d;" glyph-name="book" d="M329.143 886.857v-658.286h73.143v658.286h365.714c60.594 0 109.714-49.121 109.714-109.714v-512c0-60.594-49.121-109.714-109.714-109.714h-548.571v-36.571c0-18.755 14.118-34.213 32.306-36.325l4.265-0.246h585.143c20.198 0 36.571-16.374 36.571-36.571 0-18.755-14.118-34.213-32.306-36.325l-4.265-0.246h-585.143c-58.429 0-106.191 45.675-109.528 103.268l-0.186 6.447v694.857c0 40.396 32.747 73.143 73.143 73.143h109.714zM658.286 704h-109.714c-20.198 0-36.571-16.374-36.571-36.571s16.374-36.571 36.571-36.571h109.714c20.198 0 36.571 16.374 36.571 36.571s-16.374 36.571-36.571 36.571z" />
<glyph unicode="&#xe91e;" glyph-name="browser-outline" d="M914.286 850.286c40.396 0 73.143-32.747 73.143-73.143v-658.286c0-40.396-32.747-73.143-73.143-73.143h-804.571c-40.396 0-73.143 32.747-73.143 73.143v658.286c0 40.396 32.747 73.143 73.143 73.143zM914.286 777.143h-804.571v-658.286h804.571v658.286zM658.286 704c20.198 0 36.571-16.374 36.571-36.571s-16.374-36.571-36.571-36.571h-438.857c-20.198 0-36.571 16.374-36.571 36.571s16.374 36.571 36.571 36.571h438.857zM804.571 704c20.198 0 36.571-16.374 36.571-36.571s-16.374-36.571-36.571-36.571c-20.198 0-36.571 16.374-36.571 36.571s16.374 36.571 36.571 36.571z" />
<glyph unicode="&#xe91f;" glyph-name="browser" d="M877.714 813.714c40.396 0 73.143-32.747 73.143-73.143v-585.143c0-40.396-32.747-73.143-73.143-73.143h-731.429c-40.396 0-73.143 32.747-73.143 73.143v585.143c0 40.396 32.747 73.143 73.143 73.143zM694.857 740.571h-512c-20.198 0-36.571-16.374-36.571-36.571s16.374-36.571 36.571-36.571h512c20.198 0 36.571 16.374 36.571 36.571s-16.374 36.571-36.571 36.571zM841.143 740.571c-20.198 0-36.571-16.374-36.571-36.571s16.374-36.571 36.571-36.571c20.198 0 36.571 16.374 36.571 36.571s-16.374 36.571-36.571 36.571z" />
<glyph unicode="&#xe920;" glyph-name="bug-outline" d="M724.708 921.552c17.793-5.931 27.993-24.213 24.245-42.136l-1.115-4.124-39.302-117.905-38.298-38.298c33.073-26.634 61.574-61.373 83.707-101.971l133.158 147.918c13.512 15.013 36.635 16.23 51.648 2.718 13.858-12.472 15.961-33.135 5.575-48.048l-2.857-3.6-156.245-173.62c9.54-31.055 15.788-64.149 18.212-98.615l115.386-14.44c18.938-2.367 32.63-18.799 32.021-37.437l-0.353-4.024-18.286-128c-2.856-19.995-21.381-33.888-41.376-31.032-18.567 2.652-31.872 18.815-31.391 37.119l0.36 4.257 13.018 91.157-70.077 8.765c-5.824-64.947-25.256-124.751-54.649-174.853l75.3-45.167c16.626-9.976 22.376-30.976 13.839-47.836l-2.225-3.81-73.143-109.714c-11.204-16.806-33.91-21.347-50.715-10.143-15.605 10.403-20.636 30.725-12.304 47.030l2.161 3.685 51.824 77.835-48.197 28.893c-51.463-56.315-118.856-90.443-192.626-90.443s-141.164 34.128-192.626 90.443l-48.233-28.893 51.86-77.835c10.403-15.605 7.231-36.298-6.731-48.145l-3.412-2.571c-15.605-10.403-36.298-7.231-48.145 6.731l-2.571 3.412-73.143 109.714c-10.755 16.133-6.961 37.573 7.971 49.155l3.642 2.491 75.278 45.204c-29.381 50.094-48.804 109.885-54.627 174.816l-70.114-8.765 13.054-91.157c2.652-18.567-9.138-35.866-26.845-40.529l-4.187-0.847c-18.567-2.652-35.866 9.138-40.529 26.845l-0.847 4.187-18.286 128c-2.699 18.894 9.551 36.427 27.693 40.743l3.975 0.718 115.386 14.44c2.425 34.479 8.677 67.586 18.223 98.651l-156.256 173.584c-13.512 15.013-12.295 38.137 2.718 51.648 13.858 12.472 34.627 12.395 48.368 0.501l3.281-3.219 133.137-147.955c19.892 36.498 44.93 68.261 73.81 93.659l-46.667 46.646-39.302 117.905c-6.387 19.161 3.968 39.872 23.13 46.26 17.793 5.931 36.922-2.575 44.677-19.161l1.582-3.968 33.804-101.457 44.674-44.688c32.937 16.055 68.773 24.866 106.256 24.866 32.76 0 64.263-6.731 93.671-19.146l38.937 38.967 33.84 101.457c6.387 19.161 27.098 29.517 46.26 23.13zM718.159 511.493l-18.699-4.43c-65.959-14.973-128.443-22.491-187.46-22.491-64.56 0-133.27 8.996-206.139 26.908-8.578-31.043-13.29-64.698-13.29-100.051 0-164.721 102.28-292.571 219.429-292.571s219.429 127.85 219.429 292.571c0 35.353-4.711 69.008-13.27 100.064zM512 704c-72.011 0-138.404-48.309-178.876-123.795 57.052-13.478 110.823-20.855 161.353-22.248l17.523-0.243c55.573 0 115.185 7.451 178.829 22.424-40.425 75.553-106.818 123.862-178.829 123.862z" />
<glyph unicode="&#xe921;" glyph-name="bug" d="M785.235 542.45c9.529-31.032 15.773-64.099 18.198-98.537l115.389-14.481c18.938-2.367 32.63-18.799 32.021-37.437l-0.353-4.024-18.286-128c-2.856-19.995-21.381-33.888-41.376-31.032-18.567 2.652-31.872 18.815-31.391 37.119l0.36 4.257 13.018 91.157-70.077 8.765c-5.824-64.947-25.256-124.751-54.649-174.853l75.3-45.167c16.626-9.976 22.376-30.976 13.839-47.836l-2.225-3.81-73.143-109.714c-11.204-16.806-33.91-21.347-50.715-10.143-15.605 10.403-20.636 30.725-12.304 47.030l2.161 3.685 51.824 77.835-48.197 28.893c-51.463-56.315-118.856-90.443-192.626-90.443s-141.164 34.128-192.626 90.443l-48.233-28.893 51.86-77.835c10.403-15.605 7.231-36.298-6.731-48.145l-3.412-2.571c-15.605-10.403-36.298-7.231-48.145 6.731l-2.571 3.412-73.143 109.714c-10.755 16.133-6.961 37.573 7.971 49.155l3.642 2.491 75.278 45.204c-29.381 50.094-48.804 109.885-54.627 174.816l-70.114-8.765 13.054-91.157c2.652-18.567-9.138-35.866-26.845-40.529l-4.187-0.847c-18.567-2.652-35.866 9.138-40.529 26.845l-0.847 4.187-18.286 128c-2.699 18.894 9.551 36.427 27.693 40.743l3.975 0.718 115.386 14.445c2.423 34.451 8.667 67.53 18.2 98.573l15.369-17.013 10.106-2.887 20.309-5.609c80.819-21.544 156.632-32.369 227.452-32.369 76.722 0 159.304 12.705 247.762 37.978l10.106 2.887 15.369 17.013zM512 777.143c98.104 0 184.93-60.357 238.009-152.984l3.932-7.035-24.269-26.971-10.426-2.901c-74.393-19.727-143.48-29.538-207.247-29.538l-17.523 0.243c-58.849 1.622-122.094 11.361-189.724 29.295l-10.463 2.901-24.273 26.897c52.656 96.636 141.391 160.093 241.982 160.093zM133.617 768.256l3.281-3.219 133.14-147.949c-12.594-23.107-23.125-48.112-31.262-74.601l-156.245 173.62c-13.512 15.013-12.295 38.137 2.718 51.648 13.858 12.472 34.627 12.395 48.368 0.501zM938.751 767.755c13.858-12.472 15.961-33.135 5.575-48.048l-2.857-3.6-156.245-173.62c-8.137 26.488-18.668 51.493-31.262 74.601l133.14 147.949c13.512 15.013 36.635 16.23 51.648 2.718zM325.684 902.39l1.582-3.968 33.804-101.457 48.79-48.819c13.183-13.183 14.198-33.928 3.042-48.275l-3.042-3.445c-13.183-13.183-33.928-14.198-48.275-3.042l-3.445 3.042-60.962 60.962-39.302 117.905c-6.387 19.161 3.968 39.872 23.13 46.26 17.793 5.931 36.922-2.575 44.677-19.161zM724.708 921.552c17.793-5.931 27.993-24.213 24.245-42.136l-1.115-4.124-39.302-117.905-60.962-60.962c-14.282-14.282-37.438-14.282-51.72 0-13.183 13.183-14.198 33.928-3.042 48.275l3.042 3.445 48.754 48.819 33.84 101.457c6.387 19.161 27.098 29.517 46.26 23.13z" />
<glyph unicode="&#xe922;" glyph-name="calendar-add-outline" d="M713.143 886.857c30.297 0 54.857-24.56 54.857-54.857v-18.286h109.714c40.396 0 73.143-32.747 73.143-73.143l0.058-332.897c45.211-46.168 73.084-109.38 73.084-179.103 0-141.385-114.615-256-256-256-86.973 0-163.816 43.371-210.080 109.666l-411.634 0.049c-40.396 0-73.143 32.747-73.143 73.143v585.143c0 40.396 32.747 73.143 73.143 73.143h109.714v18.286c0 30.297 24.56 54.857 54.857 54.857s54.857-24.56 54.857-54.857v-18.286h292.571v18.286c0 30.297 24.56 54.857 54.857 54.857zM768 411.429c-100.989 0-182.857-81.868-182.857-182.857s81.868-182.857 182.857-182.857c100.989 0 182.857 81.868 182.857 182.857s-81.868 182.857-182.857 182.857zM768 338.286c-20.198 0-36.571-16.374-36.571-36.571v-36.571h-36.571c-20.198 0-36.571-16.374-36.571-36.571s16.374-36.571 36.571-36.571h36.571v-36.571c0-20.198 16.374-36.571 36.571-36.571s36.571 16.374 36.571 36.571v36.571h36.571c20.198 0 36.571 16.374 36.571 36.571s-16.374 36.571-36.571 36.571h-36.571v36.571c0 20.198-16.374 36.571-36.571 36.571zM877.714 521.143h-731.429v-365.714l376.327-0.038c-6.905 23.187-10.613 47.751-10.613 73.181 0 141.385 114.615 256 256 256 39.274 0 76.482-8.844 109.741-24.648l-0.027 61.22zM256 740.571h-109.714v-146.286h731.429v146.286h-109.714v-18.286c0-30.297-24.56-54.857-54.857-54.857s-54.857 24.56-54.857 54.857v18.286h-292.571v-18.286c0-30.297-24.56-54.857-54.857-54.857s-54.857 24.56-54.857 54.857v18.286z" />
<glyph unicode="&#xe923;" glyph-name="calendar-add" d="M768 521.143c141.385 0 256-114.615 256-256s-114.615-256-256-256c-141.385 0-256 114.615-256 256s114.615 256 256 256zM438.857 265.143c0 103.396 47.676 195.657 122.244 255.998l-487.958 0.002v-365.714c0-40.396 32.747-73.143 73.143-73.143l348.027-0.044c-35.027 52.31-55.455 115.22-55.455 182.901zM768 411.429c-20.198 0-36.571-16.374-36.571-36.571v-73.143h-73.143c-20.198 0-36.571-16.374-36.571-36.571s16.374-36.571 36.571-36.571h73.143v-73.143c0-20.198 16.374-36.571 36.571-36.571s36.571 16.374 36.571 36.571v73.143h73.143c20.198 0 36.571 16.374 36.571 36.571s-16.374 36.571-36.571 36.571h-73.143v73.143c0 20.198-16.374 36.571-36.571 36.571zM146.286 813.714c-40.396 0-73.143-32.747-73.143-73.143v-146.286h877.714v146.286c0 40.396-32.747 73.143-73.143 73.143l-74.968-0.021c1.197-5.902 1.825-12.010 1.825-18.265v-73.143c0-50.495-40.934-91.429-91.429-91.429s-91.429 40.934-91.429 91.429v73.143c0 6.255 0.628 12.363 1.825 18.265h-223.078c1.197-5.902 1.825-12.010 1.825-18.265v-73.143c0-50.495-40.934-91.429-91.429-91.429s-91.429 40.934-91.429 91.429v73.143c0 6.255 0.628 12.363 1.825 18.265zM310.857 886.857c-30.297 0-54.857-24.56-54.857-54.857v-109.714c0-30.297 24.56-54.857 54.857-54.857s54.857 24.56 54.857 54.857v109.714c0 30.297-24.56 54.857-54.857 54.857zM713.143 886.857c-30.297 0-54.857-24.56-54.857-54.857v-109.714c0-30.297 24.56-54.857 54.857-54.857s54.857 24.56 54.857 54.857v109.714c0 30.297-24.56 54.857-54.857 54.857z" />
<glyph unicode="&#xe924;" glyph-name="calendar-checkmark-outline" d="M713.143 886.857c30.297 0 54.857-24.56 54.857-54.857v-18.286h109.714c40.396 0 73.143-32.747 73.143-73.143l0.058-332.897c45.211-46.168 73.084-109.38 73.084-179.103 0-141.385-114.615-256-256-256-86.973 0-163.816 43.371-210.080 109.666l-411.634 0.049c-40.396 0-73.143 32.747-73.143 73.143v585.143c0 40.396 32.747 73.143 73.143 73.143h109.714v18.286c0 30.297 24.56 54.857 54.857 54.857s54.857-24.56 54.857-54.857v-18.286h292.571v18.286c0 30.297 24.56 54.857 54.857 54.857zM768 411.429c-100.989 0-182.857-81.868-182.857-182.857s81.868-182.857 182.857-182.857c100.989 0 182.857 81.868 182.857 182.857s-81.868 182.857-182.857 182.857zM848.036 338.286l-105.253-141.887-68.711 49.387-34.072-55.119 92.135-66.245 3.134-1.978c12.815-7.032 28.697-3.538 37.884 8.846l122.847 165.613-47.964 41.383zM877.714 521.143h-731.429v-365.714l376.327-0.038c-6.905 23.187-10.613 47.751-10.613 73.181 0 141.385 114.615 256 256 256 39.274 0 76.482-8.844 109.741-24.648l-0.027 61.22zM256 740.571h-109.714v-146.286h731.429v146.286h-109.714v-18.286c0-30.297-24.56-54.857-54.857-54.857s-54.857 24.56-54.857 54.857v18.286h-292.571v-18.286c0-30.297-24.56-54.857-54.857-54.857s-54.857 24.56-54.857 54.857v18.286z" />
<glyph unicode="&#xe925;" glyph-name="calendar-checkmark" d="M768 521.143c141.385 0 256-114.615 256-256s-114.615-256-256-256c-141.385 0-256 114.615-256 256s114.615 256 256 256zM438.857 265.143c0 103.396 47.676 195.657 122.244 255.998l-487.958 0.002v-365.714c0-40.396 32.747-73.143 73.143-73.143l348.027-0.044c-35.027 52.31-55.455 115.22-55.455 182.901zM848.036 374.857l-105.253-141.887-68.711 49.387-34.072-55.119 92.135-66.245 3.134-1.978c12.815-7.032 28.697-3.538 37.884 8.846l122.847 165.613-47.964 41.383zM146.286 813.714c-40.396 0-73.143-32.747-73.143-73.143v-146.286h877.714v146.286c0 40.396-32.747 73.143-73.143 73.143l-74.968-0.021c1.197-5.902 1.825-12.010 1.825-18.265v-73.143c0-50.495-40.934-91.429-91.429-91.429s-91.429 40.934-91.429 91.429v73.143c0 6.255 0.628 12.363 1.825 18.265h-223.078c1.197-5.902 1.825-12.010 1.825-18.265v-73.143c0-50.495-40.934-91.429-91.429-91.429s-91.429 40.934-91.429 91.429v73.143c0 6.255 0.628 12.363 1.825 18.265zM310.857 886.857c-30.297 0-54.857-24.56-54.857-54.857v-109.714c0-30.297 24.56-54.857 54.857-54.857s54.857 24.56 54.857 54.857v109.714c0 30.297-24.56 54.857-54.857 54.857zM713.143 886.857c-30.297 0-54.857-24.56-54.857-54.857v-109.714c0-30.297 24.56-54.857 54.857-54.857s54.857 24.56 54.857 54.857v109.714c0 30.297-24.56 54.857-54.857 54.857z" />
<glyph unicode="&#xe926;" glyph-name="calendar-cross-out-outline" d="M713.143 850.286c30.297 0 54.857-24.56 54.857-54.857v-18.286h109.714c40.396 0 73.143-32.747 73.143-73.143v-585.143c0-40.396-32.747-73.143-73.143-73.143h-731.429c-40.396 0-73.143 32.747-73.143 73.143v585.143c0 40.396 32.747 73.143 73.143 73.143h109.714v18.286c0 30.297 24.56 54.857 54.857 54.857s54.857-24.56 54.857-54.857v-18.286h292.571v18.286c0 30.297 24.56 54.857 54.857 54.857zM877.714 484.571h-731.429v-365.714h731.429v365.714zM589.58 431.014l-77.58-77.58-77.58 77.58-51.72-51.72 77.58-77.58-77.58-77.58 51.72-51.72 77.58 77.58 77.58-77.58 51.72 51.72-77.58 77.58 77.58 77.58-51.72 51.72zM256 704h-109.714v-146.286h731.429v146.286h-109.714v-18.286c0-30.297-24.56-54.857-54.857-54.857s-54.857 24.56-54.857 54.857v18.286h-292.571v-18.286c0-30.297-24.56-54.857-54.857-54.857s-54.857 24.56-54.857 54.857v18.286z" />
<glyph unicode="&#xe927;" glyph-name="calendar-cross-out" d="M950.857 484.571v-365.714c0-40.396-32.747-73.143-73.143-73.143h-731.429c-40.396 0-73.143 32.747-73.143 73.143v365.714h877.714zM589.58 394.442l-77.58-77.58-77.58 77.58-51.72-51.72 77.58-77.58-77.58-77.58 51.72-51.72 77.58 77.58 77.58-77.58 51.72 51.72-77.58 77.58 77.58 77.58-51.72 51.72zM146.286 777.143c-40.396 0-73.143-32.747-73.143-73.143v-146.286h877.714v146.286c0 40.396-32.747 73.143-73.143 73.143l-74.968-0.021c1.197-5.902 1.825-12.010 1.825-18.265v-73.143c0-50.495-40.934-91.429-91.429-91.429s-91.429 40.934-91.429 91.429v73.143c0 6.255 0.628 12.363 1.825 18.265h-223.078c1.197-5.902 1.825-12.010 1.825-18.265v-73.143c0-50.495-40.934-91.429-91.429-91.429s-91.429 40.934-91.429 91.429v73.143c0 6.255 0.628 12.363 1.825 18.265zM310.857 850.286c-30.297 0-54.857-24.56-54.857-54.857v-109.714c0-30.297 24.56-54.857 54.857-54.857s54.857 24.56 54.857 54.857v109.714c0 30.297-24.56 54.857-54.857 54.857zM713.143 850.286c-30.297 0-54.857-24.56-54.857-54.857v-109.714c0-30.297 24.56-54.857 54.857-54.857s54.857 24.56 54.857 54.857v109.714c0 30.297-24.56 54.857-54.857 54.857z" />
<glyph unicode="&#xe928;" glyph-name="calendar-cycle-outline" d="M342.167 83.201l-80.379-34.439-16.329-38.050 13.415-7.912c144.737-82.404 321.090-88.568 470.557-18.492l9.6 4.624-25.647 11.001-34.98 81.691-11.485-4.998c-103.913-43.301-222.304-41.109-324.752 6.575zM827.375 198.195c-9.523-11.992-19.828-23.566-30.916-34.654-16.986-16.986-35.113-32.135-54.134-45.448l26.763-62.456 46.543-19.978c20.399 15.060 39.934 31.828 58.408 50.302 10.211 10.211 19.901 20.747 29.070 31.573l-50.454 21.67-25.279 58.99zM184.319 214.527l-61.801-26.495-20.251-47.162c14.381-19.136 30.279-37.493 47.694-54.908 11.171-11.171 22.73-21.718 34.634-31.641l21.491 50.144 59.53 25.474c-13.214 10.263-25.936 21.464-38.075 33.603-16.046 16.046-30.454 33.111-43.222 50.986zM967.942 681.242l-13.709-31.93-76.766-32.921c50.016-108.583 49.074-234.865-2.824-342.782l33.714-78.703 38.926-16.704c94.864 152.755 101.75 344.608 20.66 503.039zM75.888 716.458c-93.715-151.953-100.633-342.268-20.755-499.885l11.681 27.163 80.386 34.431c-50.985 109.538-49.962 237.303 3.070 346.11l-31.653 73.885-42.729 18.296zM621.714 740.571c20.198 0 36.571-16.374 36.571-36.571v-36.571h36.571c40.396 0 73.143-32.747 73.143-73.143v-292.571c0-40.396-32.747-73.143-73.143-73.143h-365.714c-40.396 0-73.143 32.747-73.143 73.143v292.571c0 40.396 32.747 73.143 73.143 73.143h36.571v36.571c0 20.198 16.374 36.571 36.571 36.571s36.571-16.374 36.571-36.571v-36.571h146.286v36.571c0 20.198 16.374 36.571 36.571 36.571zM694.857 448h-365.714v-146.286h365.714v146.286zM694.857 594.286h-365.714v-73.143h365.714v73.143zM838.186 842.693l-23.198-54.135-55.18-23.606c12.705-9.959 24.949-20.79 36.652-32.492 16.435-16.435 31.15-33.938 44.147-52.286l57.924 24.843 22.111 51.563c-14.093 18.614-29.627 36.484-46.602 53.459-11.552 11.552-23.519 22.437-35.853 32.654zM206.914 859.262c-19.873-14.781-38.918-31.189-56.953-49.223-10.606-10.606-20.65-21.562-30.131-32.83l54.493-23.34 23.406-54.679c9.214 11.498 19.151 22.608 29.811 33.269 17.374 17.375 35.943 32.827 55.441 46.359l-25.117 58.592-50.951 21.851zM765.231 893.14c-148.461 84.571-330.208 88.911-482.085 13.021l30.423-13.047 33.461-78.091c106.913 48.032 230.505 46.994 336.698-3.113l75.552 32.353 17.913 41.844-11.963 7.033z" />
<glyph unicode="&#xe929;" glyph-name="calendar-cycle" d="M342.167 83.201l-80.379-34.439-16.329-38.050 13.415-7.912c144.737-82.404 321.090-88.568 470.557-18.492l9.6 4.624-25.647 11.001-34.98 81.691-11.485-4.998c-103.913-43.301-222.304-41.109-324.752 6.575zM827.375 198.195c-9.523-11.992-19.828-23.566-30.916-34.654-16.986-16.986-35.113-32.135-54.134-45.448l26.763-62.456 46.543-19.978c20.399 15.060 39.934 31.828 58.408 50.302 10.211 10.211 19.901 20.747 29.070 31.573l-50.454 21.67-25.279 58.99zM184.319 214.527l-61.801-26.495-20.251-47.162c14.381-19.136 30.279-37.493 47.694-54.908 11.171-11.171 22.73-21.718 34.634-31.641l21.491 50.144 59.53 25.474c-13.214 10.263-25.936 21.464-38.075 33.603-16.046 16.046-30.454 33.111-43.222 50.986zM967.942 681.242l-13.709-31.93-76.766-32.921c50.016-108.583 49.074-234.865-2.824-342.782l33.714-78.703 38.926-16.704c94.864 152.755 101.75 344.608 20.66 503.039zM75.888 716.458c-93.715-151.953-100.633-342.268-20.755-499.885l11.681 27.163 80.386 34.431c-50.985 109.538-49.962 237.303 3.070 346.11l-31.653 73.885-42.729 18.296zM768 484.571h-512v-182.857c0-40.396 32.747-73.143 73.143-73.143h365.714c40.396 0 73.143 32.747 73.143 73.143v182.857zM621.714 740.571c-20.198 0-36.571-16.374-36.571-36.571v-36.571h-146.286v36.571c0 20.198-16.374 36.571-36.571 36.571s-36.571-16.374-36.571-36.571v-36.571h-36.571c-40.396 0-73.143-32.747-73.143-73.143v-36.571h512v36.571c0 40.396-32.747 73.143-73.143 73.143h-36.571v36.571c0 20.198-16.374 36.571-36.571 36.571zM838.186 842.693l-23.198-54.135-55.18-23.606c12.705-9.959 24.949-20.79 36.652-32.492 16.435-16.435 31.15-33.938 44.147-52.286l57.924 24.843 22.111 51.563c-14.093 18.614-29.627 36.484-46.602 53.459-11.552 11.552-23.519 22.437-35.853 32.654zM206.914 859.262c-19.873-14.781-38.918-31.189-56.953-49.223-10.606-10.606-20.65-21.562-30.131-32.83l54.493-23.34 23.406-54.679c9.214 11.498 19.151 22.608 29.811 33.269 17.374 17.375 35.943 32.827 55.441 46.359l-25.117 58.592-50.951 21.851zM765.231 893.14c-148.461 84.571-330.208 88.911-482.085 13.021l30.423-13.047 33.461-78.091c106.913 48.032 230.505 46.994 336.698-3.113l75.552 32.353 17.913 41.844-11.963 7.033z" />
<glyph unicode="&#xe92a;" glyph-name="calendar-interval-outline" d="M713.143 886.857c30.297 0 54.857-24.56 54.857-54.857v-18.286h109.714c40.396 0 73.143-32.747 73.143-73.143v-621.714c0-40.396-32.747-73.143-73.143-73.143h-731.429c-40.396 0-73.143 32.747-73.143 73.143v621.714c0 40.396 32.747 73.143 73.143 73.143h109.714v18.286c0 30.297 24.56 54.857 54.857 54.857s54.857-24.56 54.857-54.857v-18.286h292.571v18.286c0 30.297 24.56 54.857 54.857 54.857zM877.714 521.143h-731.429v-402.286h731.429v402.286zM438.857 301.714h-36.571c-20.198 0-36.571-16.374-36.571-36.571v-36.571c0-20.198 16.374-36.571 36.571-36.571h36.571c20.198 0 36.571 16.374 36.571 36.571v36.571c0 20.198-16.374 36.571-36.571 36.571zM256 301.714h-36.571c-20.198 0-36.571-16.374-36.571-36.571v-36.571c0-20.198 16.374-36.571 36.571-36.571h36.571c20.198 0 36.571 16.374 36.571 36.571v36.571c0 20.198-16.374 36.571-36.571 36.571zM822.857 265.143h-73.143c-10.099 0-18.286-8.187-18.286-18.286s8.187-18.286 18.286-18.286h73.143c10.099 0 18.286 8.187 18.286 18.286s-8.187 18.286-18.286 18.286zM640 265.143h-73.143c-10.099 0-18.286-8.187-18.286-18.286s8.187-18.286 18.286-18.286h73.143c10.099 0 18.286 8.187 18.286 18.286s-8.187 18.286-18.286 18.286zM804.571 448h-36.571c-20.198 0-36.571-16.374-36.571-36.571v-36.571c0-20.198 16.374-36.571 36.571-36.571h36.571c20.198 0 36.571 16.374 36.571 36.571v36.571c0 20.198-16.374 36.571-36.571 36.571zM621.714 448h-36.571c-20.198 0-36.571-16.374-36.571-36.571v-36.571c0-20.198 16.374-36.571 36.571-36.571h36.571c20.198 0 36.571 16.374 36.571 36.571v36.571c0 20.198-16.374 36.571-36.571 36.571zM438.857 448h-36.571c-20.198 0-36.571-16.374-36.571-36.571v-36.571c0-20.198 16.374-36.571 36.571-36.571h36.571c20.198 0 36.571 16.374 36.571 36.571v36.571c0 20.198-16.374 36.571-36.571 36.571zM274.286 411.429h-73.143c-10.099 0-18.286-8.187-18.286-18.286s8.187-18.286 18.286-18.286h73.143c10.099 0 18.286 8.187 18.286 18.286s-8.187 18.286-18.286 18.286zM256 740.571h-109.714v-146.286h731.429v146.286h-109.714v-18.286c0-30.297-24.56-54.857-54.857-54.857s-54.857 24.56-54.857 54.857v18.286h-292.571v-18.286c0-30.297-24.56-54.857-54.857-54.857s-54.857 24.56-54.857 54.857v18.286z" />
<glyph unicode="&#xe92b;" glyph-name="calendar-interval" d="M950.857 521.143v-402.286c0-40.396-32.747-73.143-73.143-73.143h-731.429c-40.396 0-73.143 32.747-73.143 73.143v402.286h877.714zM438.857 265.143h-36.571c-20.198 0-36.571-16.374-36.571-36.571v-36.571c0-20.198 16.374-36.571 36.571-36.571h36.571c20.198 0 36.571 16.374 36.571 36.571v36.571c0 20.198-16.374 36.571-36.571 36.571zM256 265.143h-36.571c-20.198 0-36.571-16.374-36.571-36.571v-36.571c0-20.198 16.374-36.571 36.571-36.571h36.571c20.198 0 36.571 16.374 36.571 36.571v36.571c0 20.198-16.374 36.571-36.571 36.571zM822.857 228.571h-73.143c-10.099 0-18.286-8.187-18.286-18.286s8.187-18.286 18.286-18.286h73.143c10.099 0 18.286 8.187 18.286 18.286s-8.187 18.286-18.286 18.286zM640 228.571h-73.143c-10.099 0-18.286-8.187-18.286-18.286s8.187-18.286 18.286-18.286h73.143c10.099 0 18.286 8.187 18.286 18.286s-8.187 18.286-18.286 18.286zM804.571 411.429h-36.571c-20.198 0-36.571-16.374-36.571-36.571v-36.571c0-20.198 16.374-36.571 36.571-36.571h36.571c20.198 0 36.571 16.374 36.571 36.571v36.571c0 20.198-16.374 36.571-36.571 36.571zM621.714 411.429h-36.571c-20.198 0-36.571-16.374-36.571-36.571v-36.571c0-20.198 16.374-36.571 36.571-36.571h36.571c20.198 0 36.571 16.374 36.571 36.571v36.571c0 20.198-16.374 36.571-36.571 36.571zM438.857 411.429h-36.571c-20.198 0-36.571-16.374-36.571-36.571v-36.571c0-20.198 16.374-36.571 36.571-36.571h36.571c20.198 0 36.571 16.374 36.571 36.571v36.571c0 20.198-16.374 36.571-36.571 36.571zM274.286 374.857h-73.143c-10.099 0-18.286-8.187-18.286-18.286s8.187-18.286 18.286-18.286h73.143c10.099 0 18.286 8.187 18.286 18.286s-8.187 18.286-18.286 18.286zM146.286 813.714c-40.396 0-73.143-32.747-73.143-73.143v-146.286h877.714v146.286c0 40.396-32.747 73.143-73.143 73.143l-74.968-0.021c1.197-5.902 1.825-12.010 1.825-18.265v-73.143c0-50.495-40.934-91.429-91.429-91.429s-91.429 40.934-91.429 91.429v73.143c0 6.255 0.628 12.363 1.825 18.265h-223.078c1.197-5.902 1.825-12.010 1.825-18.265v-73.143c0-50.495-40.934-91.429-91.429-91.429s-91.429 40.934-91.429 91.429v73.143c0 6.255 0.628 12.363 1.825 18.265zM310.857 886.857c-30.297 0-54.857-24.56-54.857-54.857v-109.714c0-30.297 24.56-54.857 54.857-54.857s54.857 24.56 54.857 54.857v109.714c0 30.297-24.56 54.857-54.857 54.857zM713.143 886.857c-30.297 0-54.857-24.56-54.857-54.857v-109.714c0-30.297 24.56-54.857 54.857-54.857s54.857 24.56 54.857 54.857v109.714c0 30.297-24.56 54.857-54.857 54.857z" />
<glyph unicode="&#xe92c;" glyph-name="calendar-outline" d="M713.143 850.286c30.297 0 54.857-24.56 54.857-54.857v-18.286h109.714c40.396 0 73.143-32.747 73.143-73.143v-585.143c0-40.396-32.747-73.143-73.143-73.143h-731.429c-40.396 0-73.143 32.747-73.143 73.143v585.143c0 40.396 32.747 73.143 73.143 73.143h109.714v18.286c0 30.297 24.56 54.857 54.857 54.857s54.857-24.56 54.857-54.857v-18.286h292.571v18.286c0 30.297 24.56 54.857 54.857 54.857zM877.714 484.571h-731.429v-365.714h731.429v365.714zM256 704h-109.714v-146.286h731.429v146.286h-109.714v-18.286c0-30.297-24.56-54.857-54.857-54.857s-54.857 24.56-54.857 54.857v18.286h-292.571v-18.286c0-30.297-24.56-54.857-54.857-54.857s-54.857 24.56-54.857 54.857v18.286z" />
<glyph unicode="&#xe92d;" glyph-name="calendar-star-outline" d="M713.143 850.286c30.297 0 54.857-24.56 54.857-54.857v-18.286h109.714c40.396 0 73.143-32.747 73.143-73.143v-585.143c0-40.396-32.747-73.143-73.143-73.143h-731.429c-40.396 0-73.143 32.747-73.143 73.143v585.143c0 40.396 32.747 73.143 73.143 73.143h109.714v18.286c0 30.297 24.56 54.857 54.857 54.857s54.857-24.56 54.857-54.857v-18.286h292.571v18.286c0 30.297 24.56 54.857 54.857 54.857zM256 704h-109.714v-146.286l293.013 0.007c-2.646-3.597-5.037-7.416-7.142-11.438l-2.574-5.342-24.92-56.371h-258.377v-365.714l464.838-0.089c1.758-0.037 3.498-0.028 5.22 0.024l261.371 0.065v365.714h-247.881l-17.361 1.287-44.225 71.856h309.467v146.286h-109.714v-18.286c0-30.297-24.56-54.857-54.857-54.857s-54.857 24.56-54.857 54.857v18.286h-292.571v-18.286c0-30.297-24.56-54.857-54.857-54.857s-54.857 24.56-54.857 54.857v18.286zM518.45 519.926c-8.565 3.355-18.395-0.464-21.958-8.531l-42.244-95.662-109.651-8.279c-4.423-0.334-8.526-2.303-11.413-5.477-6.035-6.635-5.216-16.621 1.829-22.305l83.543-67.402-25.524-100.779c-1.030-4.065-0.309-8.349 2.004-11.916 4.835-7.456 15.172-9.808 23.088-5.254l93.877 54.005 93.876-54.005c3.787-2.179 8.335-2.857 12.652-1.887 9.023 2.027 14.592 10.559 12.44 19.058l-25.524 100.779 83.543 67.402c3.37 2.719 5.461 6.584 5.815 10.75 0.741 8.709-6.153 16.334-15.4 17.032l-109.651 8.279-42.244 95.662c-1.704 3.859-4.96 6.926-9.058 8.531z" />
<glyph unicode="&#xe92e;" glyph-name="calendar-star" d="M221.253 777.122c-1.197-5.902-1.825-12.010-1.825-18.265v-73.143c0-50.495 40.934-91.429 91.429-91.429s91.429 40.934 91.429 91.429v73.143c0 6.255-0.628 12.363-1.825 18.265h223.078c-1.197-5.902-1.825-12.010-1.825-18.265v-73.143c0-50.495 40.934-91.429 91.429-91.429s91.429 40.934 91.429 91.429v73.143c0 6.255-0.628 12.363-1.825 18.265l74.968 0.021c40.396 0 73.143-32.747 73.143-73.143v-146.286l-366.171 0.011c3.811-5.173 7.084-10.79 9.73-16.783l24.518-55.53 11.483-0.841h320.439v-365.714c0-40.396-32.747-73.143-73.143-73.143h-731.429c-40.396 0-73.143 32.747-73.143 73.143v365.714h320.402l11.483 0.841 24.554 55.53c2.676 6.059 5.939 11.663 9.694 16.78l-366.134-0.008v146.286c0 40.396 32.747 73.143 73.143 73.143zM518.45 519.926c-8.565 3.355-18.395-0.464-21.958-8.531l-42.244-95.662-109.651-8.279c-4.423-0.334-8.526-2.303-11.413-5.477-6.035-6.635-5.216-16.621 1.829-22.305l83.543-67.402-25.524-100.779c-1.030-4.065-0.309-8.349 2.004-11.916 4.835-7.456 15.172-9.808 23.088-5.254l93.877 54.005 93.876-54.005c3.787-2.179 8.335-2.857 12.652-1.887 9.023 2.027 14.592 10.559 12.44 19.058l-25.524 100.779 83.543 67.402c3.37 2.719 5.461 6.584 5.815 10.75 0.741 8.709-6.153 16.334-15.4 17.032l-109.651 8.279-42.244 95.662c-1.704 3.859-4.96 6.926-9.058 8.531zM310.857 850.286c-30.297 0-54.857-24.56-54.857-54.857v-109.714c0-30.297 24.56-54.857 54.857-54.857s54.857 24.56 54.857 54.857v109.714c0 30.297-24.56 54.857-54.857 54.857zM713.143 850.286c-30.297 0-54.857-24.56-54.857-54.857v-109.714c0-30.297 24.56-54.857 54.857-54.857s54.857 24.56 54.857 54.857v109.714c0 30.297-24.56 54.857-54.857 54.857z" />
<glyph unicode="&#xe92f;" glyph-name="calendar-subtract-outline" d="M713.143 886.857c30.297 0 54.857-24.56 54.857-54.857v-18.286h109.714c40.396 0 73.143-32.747 73.143-73.143l0.058-332.897c45.211-46.168 73.084-109.38 73.084-179.103 0-141.385-114.615-256-256-256-86.973 0-163.816 43.371-210.080 109.666l-411.634 0.049c-40.396 0-73.143 32.747-73.143 73.143v585.143c0 40.396 32.747 73.143 73.143 73.143h109.714v18.286c0 30.297 24.56 54.857 54.857 54.857s54.857-24.56 54.857-54.857v-18.286h292.571v18.286c0 30.297 24.56 54.857 54.857 54.857zM768 411.429c-100.989 0-182.857-81.868-182.857-182.857s81.868-182.857 182.857-182.857c100.989 0 182.857 81.868 182.857 182.857s-81.868 182.857-182.857 182.857zM877.714 521.143h-731.429v-365.714l376.327-0.038c-6.905 23.187-10.613 47.751-10.613 73.181 0 141.385 114.615 256 256 256 39.274 0 76.482-8.844 109.741-24.648l-0.027 61.22zM841.143 265.143h-146.286c-20.198 0-36.571-16.374-36.571-36.571s16.374-36.571 36.571-36.571h146.286c20.198 0 36.571 16.374 36.571 36.571s-16.374 36.571-36.571 36.571zM256 740.571h-109.714v-146.286h731.429v146.286h-109.714v-18.286c0-30.297-24.56-54.857-54.857-54.857s-54.857 24.56-54.857 54.857v18.286h-292.571v-18.286c0-30.297-24.56-54.857-54.857-54.857s-54.857 24.56-54.857 54.857v18.286z" />
<glyph unicode="&#xe930;" glyph-name="calendar-subtract" d="M768 521.143c141.385 0 256-114.615 256-256s-114.615-256-256-256c-141.385 0-256 114.615-256 256s114.615 256 256 256zM438.857 265.143c0 103.396 47.676 195.657 122.244 255.998l-487.958 0.002v-365.714c0-40.396 32.747-73.143 73.143-73.143l348.027-0.044c-35.027 52.31-55.455 115.22-55.455 182.901zM877.714 301.714h-219.429c-20.198 0-36.571-16.374-36.571-36.571s16.374-36.571 36.571-36.571h219.429c20.198 0 36.571 16.374 36.571 36.571s-16.374 36.571-36.571 36.571zM146.286 813.714c-40.396 0-73.143-32.747-73.143-73.143v-146.286h877.714v146.286c0 40.396-32.747 73.143-73.143 73.143l-74.968-0.021c1.197-5.902 1.825-12.010 1.825-18.265v-73.143c0-50.495-40.934-91.429-91.429-91.429s-91.429 40.934-91.429 91.429v73.143c0 6.255 0.628 12.363 1.825 18.265h-223.078c1.197-5.902 1.825-12.010 1.825-18.265v-73.143c0-50.495-40.934-91.429-91.429-91.429s-91.429 40.934-91.429 91.429v73.143c0 6.255 0.628 12.363 1.825 18.265zM310.857 886.857c-30.297 0-54.857-24.56-54.857-54.857v-109.714c0-30.297 24.56-54.857 54.857-54.857s54.857 24.56 54.857 54.857v109.714c0 30.297-24.56 54.857-54.857 54.857zM713.143 886.857c-30.297 0-54.857-24.56-54.857-54.857v-109.714c0-30.297 24.56-54.857 54.857-54.857s54.857 24.56 54.857 54.857v109.714c0 30.297-24.56 54.857-54.857 54.857z" />
<glyph unicode="&#xe931;" glyph-name="calendar" d="M950.857 484.571h-877.714v-365.714c0-40.396 32.747-73.143 73.143-73.143h731.429c40.396 0 73.143 32.747 73.143 73.143v365.714zM146.286 777.143c-40.396 0-73.143-32.747-73.143-73.143v-146.286h877.714v146.286c0 40.396-32.747 73.143-73.143 73.143l-74.968-0.021c1.197-5.902 1.825-12.010 1.825-18.265v-73.143c0-50.495-40.934-91.429-91.429-91.429s-91.429 40.934-91.429 91.429v73.143c0 6.255 0.628 12.363 1.825 18.265h-223.078c1.197-5.902 1.825-12.010 1.825-18.265v-73.143c0-50.495-40.934-91.429-91.429-91.429s-91.429 40.934-91.429 91.429v73.143c0 6.255 0.628 12.363 1.825 18.265zM310.857 850.286c-30.297 0-54.857-24.56-54.857-54.857v-109.714c0-30.297 24.56-54.857 54.857-54.857s54.857 24.56 54.857 54.857v109.714c0 30.297-24.56 54.857-54.857 54.857zM713.143 850.286c-30.297 0-54.857-24.56-54.857-54.857v-109.714c0-30.297 24.56-54.857 54.857-54.857s54.857 24.56 54.857 54.857v109.714c0 30.297-24.56 54.857-54.857 54.857z" />
<glyph unicode="&#xe932;" glyph-name="camera-outline" d="M619.141 850.286c36.683 0 70.94-18.333 91.288-48.856l40.566-60.859h126.72c58.429 0 106.191-45.675 109.528-103.268l0.186-6.447v-438.857c0-60.594-49.121-109.714-109.714-109.714h-731.429c-60.594 0-109.714 49.121-109.714 109.714v438.857c0 60.594 49.121 109.714 109.714 109.714h126.683l40.602 60.859c18.992 28.488 50.099 46.357 83.987 48.613l7.301 0.243zM619.141 777.143h-214.282c-12.228 0-23.647-6.111-30.429-16.285l-62.286-93.429h-165.858c-20.198 0-36.571-16.374-36.571-36.571v-438.857c0-20.198 16.374-36.571 36.571-36.571h731.429c20.198 0 36.571 16.374 36.571 36.571v438.857c0 20.198-16.374 36.571-36.571 36.571h-165.858l-62.286 93.429c-6.783 10.174-18.201 16.285-30.429 16.285zM512 630.857c121.187 0 219.429-98.242 219.429-219.429s-98.242-219.429-219.429-219.429c-121.187 0-219.429 98.242-219.429 219.429s98.242 219.429 219.429 219.429zM512 557.714c-80.791 0-146.286-65.494-146.286-146.286s65.494-146.286 146.286-146.286c80.791 0 146.286 65.494 146.286 146.286s-65.494 146.286-146.286 146.286zM841.143 630.857c20.198 0 36.571-16.374 36.571-36.571s-16.374-36.571-36.571-36.571h-36.571c-20.198 0-36.571 16.374-36.571 36.571s16.374 36.571 36.571 36.571h36.571z" />
<glyph unicode="&#xe933;" glyph-name="camera" d="M619.141 813.714c24.456 0 47.293-12.222 60.859-32.571l51.429-77.144h146.286c40.396 0 73.143-32.747 73.143-73.143v-438.857c0-40.396-32.747-73.143-73.143-73.143h-731.429c-40.396 0-73.143 32.747-73.143 73.143v438.857c0 40.396 32.747 73.143 73.143 73.143h146.286l51.429 77.144c13.565 20.348 36.403 32.571 60.859 32.571h214.282zM512 630.857c-121.187 0-219.429-98.242-219.429-219.429s98.242-219.429 219.429-219.429c121.187 0 219.429 98.242 219.429 219.429s-98.242 219.429-219.429 219.429zM512 557.714c-80.791 0-146.286-65.494-146.286-146.286s65.494-146.286 146.286-146.286c80.791 0 146.286 65.494 146.286 146.286s-65.494 146.286-146.286 146.286zM841.143 630.857h-36.571c-20.198 0-36.571-16.374-36.571-36.571s16.374-36.571 36.571-36.571h36.571c20.198 0 36.571 16.374 36.571 36.571s-16.374 36.571-36.571 36.571z" />
<glyph unicode="&#xe934;" glyph-name="canvas-outline" d="M256 960c-20.198 0-36.571-16.374-36.571-36.571v-109.714h73.143v109.714c0 20.198-16.374 36.571-36.571 36.571zM36.571 740.571c-20.198 0-36.571-16.374-36.571-36.571s16.374-36.571 36.571-36.571h109.714v73.143h-109.714zM877.714 740.571c40.396 0 73.143-32.747 73.143-73.143v-421.728c0-21.707-9.642-42.293-26.318-56.19l-196.098-163.415c-13.145-10.954-29.714-16.953-46.825-16.953h-389.045c-40.396 0-73.143 32.747-73.143 73.143v585.143c0 40.396 32.747 73.143 73.143 73.143zM877.714 667.429h-585.143v-585.143h329.143v146.286c0 38.56 29.838 70.15 67.684 72.942l5.459 0.201h182.857v365.714zM857.125 228.571h-162.267v-135.241l162.267 135.241z" />
<glyph unicode="&#xe935;" glyph-name="canvas" d="M292.571 740.571c-40.396 0-73.143-32.747-73.143-73.143v-585.143l0.201-5.459c2.792-37.846 34.383-67.684 72.942-67.684h292.571v256c0 38.56 29.838 70.15 67.684 72.942l298.030 0.201v329.143c0 40.396-32.747 73.143-73.143 73.143zM950.857 265.143h-292.571v-256h23.331c17.111 0 33.68 5.999 46.825 16.953l196.098 163.415c16.676 13.897 26.318 34.483 26.318 56.19v19.442zM146.286 740.571h-109.714c-20.198 0-36.571-16.374-36.571-36.571s16.374-36.571 36.571-36.571h109.714v73.143zM256 960c-20.198 0-36.571-16.374-36.571-36.571v-109.714h73.143v109.714c0 20.198-16.374 36.571-36.571 36.571z" />
<glyph unicode="&#xe936;" glyph-name="card-add-outline" d="M877.714 777.143c40.396 0 73.143-32.747 73.143-73.143l0.058-259.754c45.211-46.168 73.084-109.38 73.084-179.103 0-141.385-114.615-256-256-256-86.973 0-163.816 43.371-210.080 109.666l-411.634 0.049c-40.396 0-73.143 32.747-73.143 73.143v512c0 40.396 32.747 73.143 73.143 73.143h731.429zM768 448c-100.989 0-182.857-81.868-182.857-182.857s81.868-182.857 182.857-182.857c100.989 0 182.857 81.868 182.857 182.857s-81.868 182.857-182.857 182.857zM768 374.857c20.198 0 36.571-16.374 36.571-36.571v-36.571h36.571c20.198 0 36.571-16.374 36.571-36.571s-16.374-36.571-36.571-36.571h-36.571v-36.571c0-20.198-16.374-36.571-36.571-36.571s-36.571 16.374-36.571 36.571v36.571h-36.571c-20.198 0-36.571 16.374-36.571 36.571s16.374 36.571 36.571 36.571h36.571v36.571c0 20.198 16.374 36.571 36.571 36.571zM514.593 301.715h-368.307v-109.714l376.327-0.038c-6.905 23.187-10.613 47.751-10.613 73.181 0 12.417 0.884 24.627 2.593 36.572zM877.714 704h-731.429v-292.571l411.608 0.012c46.262 66.315 123.117 109.702 210.106 109.702 39.274 0 76.482-8.844 109.741-24.648l-0.027 207.506z" />
<glyph unicode="&#xe937;" glyph-name="card-add" d="M768 521.143c141.385 0 256-114.615 256-256s-114.615-256-256-256c-141.385 0-256 114.615-256 256s114.615 256 256 256zM438.857 265.143c0-52.563 12.321-102.249 34.233-146.326l-326.805 0.040c-40.396 0-73.143 32.747-73.143 73.143v109.714l367.722-0.011c-1.327-12.004-2.008-24.203-2.008-36.56zM768 411.429c-20.198 0-36.571-16.374-36.571-36.571v-73.143h-73.143c-20.198 0-36.571-16.374-36.571-36.571s16.374-36.571 36.571-36.571h73.143v-73.143c0-20.198 16.374-36.571 36.571-36.571s36.571 16.374 36.571 36.571v73.143h73.143c20.198 0 36.571 16.374 36.571 36.571s-16.374 36.571-36.571 36.571h-73.143v73.143c0 20.198-16.374 36.571-36.571 36.571zM877.714 777.143c40.396 0 73.143-32.747 73.143-73.143l0.044-165.17c-52.31 35.027-115.22 55.455-182.901 55.455-129.232 0-241.068-74.478-294.928-182.854l-399.929-0.003v292.571c0 40.396 32.747 73.143 73.143 73.143h731.429z" />
<glyph unicode="&#xe938;" glyph-name="card-checkmark-outline" d="M877.714 777.143c40.396 0 73.143-32.747 73.143-73.143l0.058-259.754c45.211-46.168 73.084-109.38 73.084-179.103 0-141.385-114.615-256-256-256-86.973 0-163.816 43.371-210.080 109.666l-411.634 0.049c-40.396 0-73.143 32.747-73.143 73.143v512c0 40.396 32.747 73.143 73.143 73.143h731.429zM768 448c-100.989 0-182.857-81.868-182.857-182.857s81.868-182.857 182.857-182.857c100.989 0 182.857 81.868 182.857 182.857s-81.868 182.857-182.857 182.857zM848.036 374.857l47.964-41.383-122.847-165.613c-9.186-12.384-25.069-15.878-37.884-8.846l-3.134 1.978-92.135 66.245 34.072 55.119 68.711-49.387 105.253 141.887zM514.593 301.715h-368.307v-109.714l376.327-0.038c-6.905 23.187-10.613 47.751-10.613 73.181 0 12.417 0.884 24.627 2.593 36.572zM877.714 704h-731.429v-292.571l411.608 0.012c46.262 66.315 123.117 109.702 210.106 109.702 39.274 0 76.482-8.844 109.741-24.648l-0.027 207.506z" />
<glyph unicode="&#xe939;" glyph-name="card-checkmark" d="M768 521.143c141.385 0 256-114.615 256-256s-114.615-256-256-256c-141.385 0-256 114.615-256 256s114.615 256 256 256zM438.857 265.143c0-52.563 12.321-102.249 34.233-146.326l-326.805 0.040c-40.396 0-73.143 32.747-73.143 73.143v109.714l367.722-0.011c-1.327-12.004-2.008-24.203-2.008-36.56zM848.036 374.857l-105.253-141.887-68.711 49.387-34.072-55.119 92.135-66.245 3.134-1.978c12.815-7.032 28.697-3.538 37.884 8.846l122.847 165.613-47.964 41.383zM877.714 777.143c40.396 0 73.143-32.747 73.143-73.143l0.044-165.17c-52.31 35.027-115.22 55.455-182.901 55.455-129.232 0-241.068-74.478-294.928-182.854l-399.929-0.003v292.571c0 40.396 32.747 73.143 73.143 73.143h731.429z" />
<glyph unicode="&#xe93a;" glyph-name="card-outline" d="M877.714 777.143c40.396 0 73.143-32.747 73.143-73.143v-512c0-40.396-32.747-73.143-73.143-73.143h-731.429c-40.396 0-73.143 32.747-73.143 73.143v512c0 40.396 32.747 73.143 73.143 73.143h731.429zM146.286 301.714v-109.714h731.429v109.714h-731.429zM146.286 411.429h731.429v292.571h-731.429v-292.571z" />
<glyph unicode="&#xe93b;" glyph-name="card-scan-outline" d="M36.571 155.429l4.265-0.246c18.188-2.113 32.306-17.57 32.306-36.325v-73.143h73.143l4.265-0.246c18.188-2.113 32.306-17.57 32.306-36.325 0-20.198-16.374-36.571-36.571-36.571h-109.714l-4.265 0.246c-18.188 2.113-32.306 17.57-32.306 36.325v109.714l0.246 4.265c2.113 18.188 17.57 32.306 36.325 32.306zM987.429 155.429c20.198 0 36.571-16.374 36.571-36.571v-109.714l-0.246-4.265c-2.113-18.188-17.57-32.306-36.325-32.306h-109.714l-4.265 0.246c-18.188 2.113-32.306 17.57-32.306 36.325l0.246 4.265c2.113 18.188 17.57 32.306 36.325 32.306h73.143v73.143l0.246 4.265c2.113 18.188 17.57 32.306 36.325 32.306zM182.857 265.143v-36.571h658.286v36.571h73.143v-36.571c0-38.56-29.838-70.15-67.684-72.942l-5.459-0.201h-658.286c-40.396 0-73.143 32.747-73.143 73.143v36.571h73.143zM950.857 484.571c20.198 0 36.571-16.374 36.571-36.571v-73.143c0-20.198-16.374-36.571-36.571-36.571h-877.714c-20.198 0-36.571 16.374-36.571 36.571v73.143c0 20.198 16.374 36.571 36.571 36.571h877.714zM841.143 740.571c40.396 0 73.143-32.747 73.143-73.143v-109.714h-73.143v109.714h-658.286v-109.714h-73.143v109.714c0 38.56 29.838 70.15 67.684 72.942l5.459 0.201h658.286zM987.429 923.429c18.755 0 34.213-14.118 36.325-32.306l0.246-4.265v-109.714c0-20.198-16.374-36.571-36.571-36.571-18.755 0-34.213 14.118-36.325 32.306l-0.246 4.265v73.143h-73.143c-18.755 0-34.213 14.118-36.325 32.306l-0.246 4.265c0 18.755 14.118 34.213 32.306 36.325l4.265 0.246h109.714zM146.286 923.429c20.198 0 36.571-16.374 36.571-36.571 0-18.755-14.118-34.213-32.306-36.325l-4.265-0.246h-73.143v-73.143c0-18.755-14.118-34.213-32.306-36.325l-4.265-0.246c-18.755 0-34.213 14.118-36.325 32.306l-0.246 4.265v109.714c0 18.755 14.118 34.213 32.306 36.325l4.265 0.246h109.714z" />
<glyph unicode="&#xe93c;" glyph-name="card-scan" d="M36.571 155.429l4.265-0.246c18.188-2.113 32.306-17.57 32.306-36.325v-73.143h73.143l4.265-0.246c18.188-2.113 32.306-17.57 32.306-36.325 0-20.198-16.374-36.571-36.571-36.571h-109.714l-4.265 0.246c-18.188 2.113-32.306 17.57-32.306 36.325v109.714l0.246 4.265c2.113 18.188 17.57 32.306 36.325 32.306zM987.429 155.429c20.198 0 36.571-16.374 36.571-36.571v-109.714l-0.246-4.265c-2.113-18.188-17.57-32.306-36.325-32.306h-109.714l-4.265 0.246c-18.188 2.113-32.306 17.57-32.306 36.325l0.246 4.265c2.113 18.188 17.57 32.306 36.325 32.306h73.143v73.143l0.246 4.265c2.113 18.188 17.57 32.306 36.325 32.306zM914.286 338.286v-109.714c0-38.56-29.838-70.15-67.684-72.942l-5.459-0.201h-658.286c-40.396 0-73.143 32.747-73.143 73.143v109.714h804.571zM950.857 484.571c20.198 0 36.571-16.374 36.571-36.571v-73.143c0-20.198-16.374-36.571-36.571-36.571h-36.571v146.286h36.571zM109.714 484.571v-146.286h-36.571c-20.198 0-36.571 16.374-36.571 36.571v73.143c0 20.198 16.374 36.571 36.571 36.571h36.571zM841.143 740.571c40.396 0 73.143-32.747 73.143-73.143v-182.857h-804.571v182.857c0 38.56 29.838 70.15 67.684 72.942l5.459 0.201h658.286zM987.429 923.429c18.755 0 34.213-14.118 36.325-32.306l0.246-4.265v-109.714c0-20.198-16.374-36.571-36.571-36.571-18.755 0-34.213 14.118-36.325 32.306l-0.246 4.265v73.143h-73.143c-18.755 0-34.213 14.118-36.325 32.306l-0.246 4.265c0 18.755 14.118 34.213 32.306 36.325l4.265 0.246h109.714zM146.286 923.429c20.198 0 36.571-16.374 36.571-36.571 0-18.755-14.118-34.213-32.306-36.325l-4.265-0.246h-73.143v-73.143c0-18.755-14.118-34.213-32.306-36.325l-4.265-0.246c-18.755 0-34.213 14.118-36.325 32.306l-0.246 4.265v109.714c0 18.755 14.118 34.213 32.306 36.325l4.265 0.246h109.714z" />
<glyph unicode="&#xe93d;" glyph-name="card-subtract-outline" d="M877.714 777.143c40.396 0 73.143-32.747 73.143-73.143l0.058-259.754c45.211-46.168 73.084-109.38 73.084-179.103 0-141.385-114.615-256-256-256-86.973 0-163.816 43.371-210.080 109.666l-411.634 0.049c-40.396 0-73.143 32.747-73.143 73.143v512c0 40.396 32.747 73.143 73.143 73.143h731.429zM768 448c-100.989 0-182.857-81.868-182.857-182.857s81.868-182.857 182.857-182.857c100.989 0 182.857 81.868 182.857 182.857s-81.868 182.857-182.857 182.857zM514.593 301.715h-368.307v-109.714l376.327-0.038c-6.905 23.187-10.613 47.751-10.613 73.181 0 12.417 0.884 24.627 2.593 36.572zM841.143 301.714c20.198 0 36.571-16.374 36.571-36.571s-16.374-36.571-36.571-36.571h-146.286c-20.198 0-36.571 16.374-36.571 36.571s16.374 36.571 36.571 36.571h146.286zM877.714 704h-731.429v-292.571l411.608 0.012c46.262 66.315 123.117 109.702 210.106 109.702 39.274 0 76.482-8.844 109.741-24.648l-0.027 207.506z" />
<glyph unicode="&#xe93e;" glyph-name="card-subtract" d="M768 521.143c141.385 0 256-114.615 256-256s-114.615-256-256-256c-141.385 0-256 114.615-256 256s114.615 256 256 256zM438.857 265.143c0-52.563 12.321-102.249 34.233-146.326l-326.805 0.040c-40.396 0-73.143 32.747-73.143 73.143v109.714l367.722-0.011c-1.327-12.004-2.008-24.203-2.008-36.56zM877.714 301.714h-219.429c-20.198 0-36.571-16.374-36.571-36.571s16.374-36.571 36.571-36.571h219.429c20.198 0 36.571 16.374 36.571 36.571s-16.374 36.571-36.571 36.571zM877.714 777.143c40.396 0 73.143-32.747 73.143-73.143l0.044-165.17c-52.31 35.027-115.22 55.455-182.901 55.455-129.232 0-241.068-74.478-294.928-182.854l-399.929-0.003v292.571c0 40.396 32.747 73.143 73.143 73.143h731.429z" />
<glyph unicode="&#xe93f;" glyph-name="card" d="M950.857 301.714v-109.714c0-40.396-32.747-73.143-73.143-73.143h-731.429c-40.396 0-73.143 32.747-73.143 73.143v109.714h877.714zM73.143 704c0 40.396 32.747 73.143 73.143 73.143h731.429c40.396 0 73.143-32.747 73.143-73.143v-292.571h-877.714v292.571z" />
<glyph unicode="&#xe940;" glyph-name="catch-horizontal-outline" d="M256 265.143c0-60.594-49.121-109.714-109.714-109.714s-109.714 49.121-109.714 109.714c0 60.594 49.121 109.714 109.714 109.714s109.714-49.121 109.714-109.714zM256 630.857c0-60.594-49.121-109.714-109.714-109.714s-109.714 49.121-109.714 109.714c0 60.594 49.121 109.714 109.714 109.714s109.714-49.121 109.714-109.714zM182.857 265.143c0 20.198-16.374 36.571-36.571 36.571s-36.571-16.374-36.571-36.571c0-20.198 16.374-36.571 36.571-36.571s36.571 16.374 36.571 36.571zM182.857 630.857c0 20.198-16.374 36.571-36.571 36.571s-36.571-16.374-36.571-36.571c0-20.198 16.374-36.571 36.571-36.571s36.571 16.374 36.571 36.571zM621.714 265.143c0-60.594-49.121-109.714-109.714-109.714s-109.714 49.121-109.714 109.714c0 60.594 49.121 109.714 109.714 109.714s109.714-49.121 109.714-109.714zM621.714 630.857c0-60.594-49.121-109.714-109.714-109.714s-109.714 49.121-109.714 109.714c0 60.594 49.121 109.714 109.714 109.714s109.714-49.121 109.714-109.714zM548.571 265.143c0 20.198-16.374 36.571-36.571 36.571s-36.571-16.374-36.571-36.571c0-20.198 16.374-36.571 36.571-36.571s36.571 16.374 36.571 36.571zM548.571 630.857c0 20.198-16.374 36.571-36.571 36.571s-36.571-16.374-36.571-36.571c0-20.198 16.374-36.571 36.571-36.571s36.571 16.374 36.571 36.571zM987.429 630.857c0-60.594-49.121-109.714-109.714-109.714s-109.714 49.121-109.714 109.714c0 60.594 49.121 109.714 109.714 109.714s109.714-49.121 109.714-109.714zM987.429 265.143c0-60.594-49.121-109.714-109.714-109.714s-109.714 49.121-109.714 109.714c0 60.594 49.121 109.714 109.714 109.714s109.714-49.121 109.714-109.714zM914.286 630.857c0 20.198-16.374 36.571-36.571 36.571s-36.571-16.374-36.571-36.571c0-20.198 16.374-36.571 36.571-36.571s36.571 16.374 36.571 36.571zM914.286 265.143c0 20.198-16.374 36.571-36.571 36.571s-36.571-16.374-36.571-36.571c0-20.198 16.374-36.571 36.571-36.571s36.571 16.374 36.571 36.571z" />
<glyph unicode="&#xe941;" glyph-name="catch-horizontal" d="M256 265.143c0 60.594-49.121 109.714-109.714 109.714s-109.714-49.121-109.714-109.714c0-60.594 49.121-109.714 109.714-109.714s109.714 49.121 109.714 109.714zM256 630.857c0 60.594-49.121 109.714-109.714 109.714s-109.714-49.121-109.714-109.714c0-60.594 49.121-109.714 109.714-109.714s109.714 49.121 109.714 109.714zM621.714 265.143c0 60.594-49.121 109.714-109.714 109.714s-109.714-49.121-109.714-109.714c0-60.594 49.121-109.714 109.714-109.714s109.714 49.121 109.714 109.714zM621.714 630.857c0 60.594-49.121 109.714-109.714 109.714s-109.714-49.121-109.714-109.714c0-60.594 49.121-109.714 109.714-109.714s109.714 49.121 109.714 109.714zM987.429 630.857c0 60.594-49.121 109.714-109.714 109.714s-109.714-49.121-109.714-109.714c0-60.594 49.121-109.714 109.714-109.714s109.714 49.121 109.714 109.714zM987.429 265.143c0 60.594-49.121 109.714-109.714 109.714s-109.714-49.121-109.714-109.714c0-60.594 49.121-109.714 109.714-109.714s109.714 49.121 109.714 109.714z" />
<glyph unicode="&#xe942;" glyph-name="catch-item-outline" d="M841.143 265.143c40.396 0 73.143-32.747 73.143-73.143v-73.143c0-40.396-32.747-73.143-73.143-73.143h-658.286c-40.396 0-73.143 32.747-73.143 73.143v73.143c0 40.396 32.747 73.143 73.143 73.143h658.286zM841.143 192h-658.286v-73.143h658.286v73.143zM153.048 551.362l-1.026-0.446c-24.987-11.633-42.308-36.966-42.308-66.345v-73.143c0-40.396 32.747-73.143 73.143-73.143h36.571v73.143h-36.571v73.143l14.244-0.043c-9.226 7.962-17.399 17.027-24.348 26.95-8.513 12.158-15.187 25.603-19.706 39.883zM804.571 356.599v-18.313h36.571c10.751 0 20.96 2.319 30.154 6.485l-66.725 11.828zM329.143 411.429h-73.143v-73.143h73.143v73.143zM438.857 411.429h-73.143v-73.143h73.143v73.143zM493.422 411.456l-17.993-0.027v-73.143h73.143v63.442l-55.15 9.728zM585.143 395.291v-57.006h73.143v44.096l-73.143 12.91zM694.857 375.945v-37.659h73.143v24.75l-73.143 12.91zM317.986 739.448c-39.782 7.015-77.718-19.549-84.733-59.331l-12.701-72.032c-7.015-39.782 19.549-77.718 59.331-84.733l648.285-114.31c39.782-7.015 77.718 19.549 84.733 59.331l12.701 72.032c7.015 39.782-19.549 77.718-59.331 84.733l-648.285 114.31zM841.143 850.286h-658.286c-40.396 0-73.143-32.747-73.143-73.143v-73.143c0-29.188 17.096-54.382 41.821-66.116l9.686 54.935c3.554 20.155 11.076 38.613 21.622 54.714l0.014 29.611 25.676 0.002c4.093 3.605 8.383 6.977 12.845 10.102 28.477 19.94 64.017 29.792 100.8 25.481l8.508-1.248 194.771-34.337h315.685v-55.662l73.143-12.873v68.535c0 40.396-32.747 73.143-73.143 73.143z" />
<glyph unicode="&#xe943;" glyph-name="catch-item" d="M182.857 265.143c-40.396 0-73.143-32.747-73.143-73.143v-73.143c0-40.396 32.747-73.143 73.143-73.143h658.286c40.396 0 73.143 32.747 73.143 73.143v73.143c0 40.396-32.747 73.143-73.143 73.143h-658.286zM167.528 556.054l-0.706-0.102c-32.683-7.31-57.108-36.493-57.108-71.38v-73.143c0-40.396 32.747-73.143 73.143-73.143h36.571v73.143h-36.571v73.143h36.571l0.015 20.65c-18.687 10.786-34.556 25.5-46.69 42.829-1.828 2.61-3.57 5.279-5.225 8.003zM804.571 393.157v-54.871h36.571c27.313 0 51.129 14.971 63.691 37.154l-100.263 17.717zM329.143 411.429h-73.143v-73.143h73.143v73.143zM438.857 411.429h-73.143v-73.143h73.143v73.143zM548.571 411.429h-73.143v-73.143h73.143v73.143zM658.286 411.429h-73.143v-73.143h73.143v73.143zM700.818 411.443l-5.961-0.014v-73.143h73.143v61.308l-67.182 11.849zM317.986 776.019c-39.782 7.015-77.718-19.549-84.733-59.331l-12.701-72.032c-7.015-39.782 19.549-77.718 59.331-84.733l648.285-114.31c39.782-7.015 77.718 19.549 84.733 59.331l12.701 72.032c7.015 39.782-19.549 77.718-59.331 84.733l-648.285 114.31zM305.298 850.298l-122.441-0.012c-40.396 0-73.143-32.747-73.143-73.143v-73.143c0-27.163 14.807-50.868 36.822-63.467 0.166 2.764 0.411 5.537 0.737 8.318l1.248 8.508 12.701 72.032c7.015 39.782 29.49 72.955 60.157 94.428 21.905 15.338 47.99 24.707 75.605 26.253l8.315 0.227zM841.143 850.286l-535.831 0.012c5.579-0.008 11.209-0.336 16.868-0.999l592.107-104.144v31.988c0 40.396-32.747 73.143-73.143 73.143z" />
<glyph unicode="&#xe944;" glyph-name="catch-vertical-outline" d="M694.857 192c60.594 0 109.714-49.121 109.714-109.714s-49.121-109.714-109.714-109.714c-60.594 0-109.714 49.121-109.714 109.714s49.121 109.714 109.714 109.714zM694.857 118.857c-20.198 0-36.571-16.374-36.571-36.571s16.374-36.571 36.571-36.571c20.198 0 36.571 16.374 36.571 36.571s-16.374 36.571-36.571 36.571zM329.143 192c60.594 0 109.714-49.121 109.714-109.714s-49.121-109.714-109.714-109.714c-60.594 0-109.714 49.121-109.714 109.714s49.121 109.714 109.714 109.714zM329.143 118.857c-20.198 0-36.571-16.374-36.571-36.571s16.374-36.571 36.571-36.571c20.198 0 36.571 16.374 36.571 36.571s-16.374 36.571-36.571 36.571zM694.857 557.714c60.594 0 109.714-49.121 109.714-109.714s-49.121-109.714-109.714-109.714c-60.594 0-109.714 49.121-109.714 109.714s49.121 109.714 109.714 109.714zM694.857 484.571c-20.198 0-36.571-16.374-36.571-36.571s16.374-36.571 36.571-36.571c20.198 0 36.571 16.374 36.571 36.571s-16.374 36.571-36.571 36.571zM329.143 557.714c60.594 0 109.714-49.121 109.714-109.714s-49.121-109.714-109.714-109.714c-60.594 0-109.714 49.121-109.714 109.714s49.121 109.714 109.714 109.714zM329.143 484.571c-20.198 0-36.571-16.374-36.571-36.571s16.374-36.571 36.571-36.571c20.198 0 36.571 16.374 36.571 36.571s-16.374 36.571-36.571 36.571zM329.143 923.429c60.594 0 109.714-49.121 109.714-109.714s-49.121-109.714-109.714-109.714c-60.594 0-109.714 49.121-109.714 109.714s49.121 109.714 109.714 109.714zM329.143 850.286c-20.198 0-36.571-16.374-36.571-36.571s16.374-36.571 36.571-36.571c20.198 0 36.571 16.374 36.571 36.571s-16.374 36.571-36.571 36.571zM694.857 923.429c60.594 0 109.714-49.121 109.714-109.714s-49.121-109.714-109.714-109.714c-60.594 0-109.714 49.121-109.714 109.714s49.121 109.714 109.714 109.714zM694.857 850.286c-20.198 0-36.571-16.374-36.571-36.571s16.374-36.571 36.571-36.571c20.198 0 36.571 16.374 36.571 36.571s-16.374 36.571-36.571 36.571z" />
<glyph unicode="&#xe945;" glyph-name="catch-vertical" d="M694.857-27.429c-60.594 0-109.714 49.121-109.714 109.714s49.121 109.714 109.714 109.714c60.594 0 109.714-49.121 109.714-109.714s-49.121-109.714-109.714-109.714zM329.143-27.429c-60.594 0-109.714 49.121-109.714 109.714s49.121 109.714 109.714 109.714c60.594 0 109.714-49.121 109.714-109.714s-49.121-109.714-109.714-109.714zM694.857 338.286c-60.594 0-109.714 49.121-109.714 109.714s49.121 109.714 109.714 109.714c60.594 0 109.714-49.121 109.714-109.714s-49.121-109.714-109.714-109.714zM329.143 338.286c-60.594 0-109.714 49.121-109.714 109.714s49.121 109.714 109.714 109.714c60.594 0 109.714-49.121 109.714-109.714s-49.121-109.714-109.714-109.714zM329.143 704c-60.594 0-109.714 49.121-109.714 109.714s49.121 109.714 109.714 109.714c60.594 0 109.714-49.121 109.714-109.714s-49.121-109.714-109.714-109.714zM694.857 704c-60.594 0-109.714 49.121-109.714 109.714s49.121 109.714 109.714 109.714c60.594 0 109.714-49.121 109.714-109.714s-49.121-109.714-109.714-109.714z" />
<glyph unicode="&#xe946;" glyph-name="chart-outline" d="M923.831 886.857l63.597-18.303-140.003-465.811c39.299-16.691 66.861-55.641 66.861-101.030 0-60.594-49.121-109.714-109.714-109.714s-109.714 49.121-109.714 109.714c0 13.567 2.463 26.559 6.965 38.553l-159.727 93.732c-18.478-14.157-41.59-22.57-66.666-22.57-12.903 0-25.286 2.227-36.785 6.319l-103.728-186.098c19.068-19.738 30.799-46.609 30.799-76.221 0-60.594-49.121-109.714-109.714-109.714-24.878 0-47.823 8.28-66.227 22.236l-75.218-58.807-41.412 50.651 78.567 61.468c-3.521 10.753-5.424 22.237-5.424 34.167 0 60.594 49.121 109.714 109.714 109.714 7.179 0 14.197-0.69 20.991-2.006l108.649 194.941c-12.554 17.841-19.925 39.592-19.925 63.065 0 60.594 49.121 109.714 109.714 109.714s109.714-49.121 109.714-109.714c0-11.74-1.844-23.049-5.258-33.654l162.489-95.381c11.229 7.741 23.972 13.444 37.695 16.575l143.763 478.175zM256 192c-20.198 0-36.571-16.374-36.571-36.571s16.374-36.571 36.571-36.571c20.198 0 36.571 16.374 36.571 36.571s-16.374 36.571-36.571 36.571zM804.571 338.286c-20.198 0-36.571-16.374-36.571-36.571s16.374-36.571 36.571-36.571c20.198 0 36.571 16.374 36.571 36.571s-16.374 36.571-36.571 36.571zM475.429 557.714c-20.198 0-36.571-16.374-36.571-36.571s16.374-36.571 36.571-36.571c20.198 0 36.571 16.374 36.571 36.571s-16.374 36.571-36.571 36.571z" />
<glyph unicode="&#xe947;" glyph-name="chart" d="M923.831 886.857l63.597-18.303-140.003-465.811c39.299-16.691 66.861-55.641 66.861-101.030 0-60.594-49.121-109.714-109.714-109.714s-109.714 49.121-109.714 109.714c0 13.567 2.463 26.559 6.965 38.553l-159.727 93.732c-18.478-14.157-41.59-22.57-66.666-22.57-12.903 0-25.286 2.227-36.785 6.319l-103.728-186.098c19.068-19.738 30.799-46.609 30.799-76.221 0-60.594-49.121-109.714-109.714-109.714-24.878 0-47.823 8.28-66.227 22.236l-75.218-58.807-41.412 50.651 78.567 61.468c-3.521 10.753-5.424 22.237-5.424 34.167 0 60.594 49.121 109.714 109.714 109.714 7.179 0 14.197-0.69 20.991-2.006l108.649 194.941c-12.554 17.841-19.925 39.592-19.925 63.065 0 60.594 49.121 109.714 109.714 109.714s109.714-49.121 109.714-109.714c0-11.74-1.844-23.049-5.258-33.654l162.489-95.381c11.229 7.741 23.972 13.444 37.695 16.575l143.763 478.175z" />
<glyph unicode="&#xe948;" glyph-name="checklist-outline" d="M402.286 777.143c-20.198 0-36.571-16.374-36.571-36.571s16.374-36.571 36.571-36.571h512c20.198 0 36.571 16.374 36.571 36.571s-16.374 36.571-36.571 36.571h-512zM223.29 830.070l-56.816-113.562-40.404 20.203-3.925 1.687c-17.213 6.245-36.753-1.267-45.141-18.043-9.033-18.065-1.71-40.033 16.355-49.066l73.143-36.571 3.925-1.687c17.213-6.245 36.753 1.267 45.141 18.043l73.143 146.286 1.687 3.925c6.245 17.213-1.267 36.753-18.043 45.141-18.065 9.033-40.033 1.71-49.066-16.355zM402.286 484.571c-20.198 0-36.571-16.374-36.571-36.571s16.374-36.571 36.571-36.571h365.714c20.198 0 36.571 16.374 36.571 36.571s-16.374 36.571-36.571 36.571h-365.714zM182.857 557.714c60.594 0 109.714-49.121 109.714-109.714s-49.121-109.714-109.714-109.714c-60.594 0-109.714 49.121-109.714 109.714s49.121 109.714 109.714 109.714zM182.857 484.571c-20.198 0-36.571-16.374-36.571-36.571s16.374-36.571 36.571-36.571c20.198 0 36.571 16.374 36.571 36.571s-16.374 36.571-36.571 36.571zM402.286 192c-20.198 0-36.571-16.374-36.571-36.571s16.374-36.571 36.571-36.571h438.857c20.198 0 36.571 16.374 36.571 36.571s-16.374 36.571-36.571 36.571h-438.857zM182.857 265.143c60.594 0 109.714-49.121 109.714-109.714s-49.121-109.714-109.714-109.714c-60.594 0-109.714 49.121-109.714 109.714s49.121 109.714 109.714 109.714zM182.857 192c-20.198 0-36.571-16.374-36.571-36.571s16.374-36.571 36.571-36.571c20.198 0 36.571 16.374 36.571 36.571s-16.374 36.571-36.571 36.571z" />
<glyph unicode="&#xe949;" glyph-name="checklist" d="M402.286 777.143c-20.198 0-36.571-16.374-36.571-36.571s16.374-36.571 36.571-36.571h512c20.198 0 36.571 16.374 36.571 36.571s-16.374 36.571-36.571 36.571h-512zM223.29 830.070l-56.816-113.562-40.404 20.203-3.925 1.687c-17.213 6.245-36.753-1.267-45.141-18.043-9.033-18.065-1.71-40.033 16.355-49.066l73.143-36.571 3.925-1.687c17.213-6.245 36.753 1.267 45.141 18.043l73.143 146.286 1.687 3.925c6.245 17.213-1.267 36.753-18.043 45.141-18.065 9.033-40.033 1.71-49.066-16.355zM402.286 484.571c-20.198 0-36.571-16.374-36.571-36.571s16.374-36.571 36.571-36.571h365.714c20.198 0 36.571 16.374 36.571 36.571s-16.374 36.571-36.571 36.571h-365.714zM182.857 521.143c-40.396 0-73.143-32.747-73.143-73.143s32.747-73.143 73.143-73.143c40.396 0 73.143 32.747 73.143 73.143s-32.747 73.143-73.143 73.143zM402.286 192c-20.198 0-36.571-16.374-36.571-36.571s16.374-36.571 36.571-36.571h438.857c20.198 0 36.571 16.374 36.571 36.571s-16.374 36.571-36.571 36.571h-438.857zM182.857 228.571c-40.396 0-73.143-32.747-73.143-73.143s32.747-73.143 73.143-73.143c40.396 0 73.143 32.747 73.143 73.143s-32.747 73.143-73.143 73.143z" />
<glyph unicode="&#xe94a;" glyph-name="checkmark-circle-outline" d="M512 886.857c242.374 0 438.857-196.483 438.857-438.857s-196.483-438.857-438.857-438.857c-242.374 0-438.857 196.483-438.857 438.857s196.483 438.857 438.857 438.857zM512 813.714c-201.978 0-365.714-163.736-365.714-365.714s163.736-365.714 365.714-365.714c201.978 0 365.714 163.736 365.714 365.714s-163.736 365.714-365.714 365.714zM668.367 630.857l63.061-43.593-213.266-305.702c-11.629-16.669-34.076-21.186-51.143-11.058l-3.835 2.598-170.613 131.015 46.895 60.512 138.626-106.474 190.275 272.701z" />
<glyph unicode="&#xe94b;" glyph-name="checkmark-circle" d="M512 886.857c242.374 0 438.857-196.483 438.857-438.857s-196.483-438.857-438.857-438.857c-242.374 0-438.857 196.483-438.857 438.857s196.483 438.857 438.857 438.857zM668.367 630.857l-190.275-272.701-138.626 106.474-46.895-60.512 170.613-131.015 3.835-2.598c17.066-10.128 39.514-5.611 51.143 11.058l213.266 305.702-63.061 43.593z" />
<glyph unicode="&#xe94c;" glyph-name="checkmark-outline" d="M914.286 660.958l-164.646 116.185-301.091-416.334-217.082 160.82-121.753-160.377 300.706-222.807 8.32-5.51c46.121-26.522 103.249-14.564 133.6 27.415l361.946 500.608zM764.461 686.457l58.122-41.014-322.433-446.019c-10.792-14.927-31.8-19.324-47.98-10.042l-5.16 3.442-245.277 181.801 42.478 55.991 218.344-161.71 301.905 417.55z" />
<glyph unicode="&#xe94d;" glyph-name="checkmark" d="M788.547 777.143l125.739-89.175-386.303-536.981c-23.409-32.54-67.605-41.398-101.581-21.809l-7.645 5.028-309.042 230.135 92.713 122.738 245.766-182.957 340.354 473.022z" />
<glyph unicode="&#xe94e;" glyph-name="chevron-down-outline" d="M731.429 458.84l-70.582 98.874-148.847-117.285-148.847 117.285-70.582-98.874 183.672-144.73 5.606-3.885c21.439-12.703 47.012-11.004 65.907 3.885l183.672 144.73zM654.152 510.373l32.138-45.008-158.691-125.056c-8.303-6.542-19.345-7.276-28.284-1.997l-3.795 2.645-157.826 124.409 32.138 45.008 142.168-112.029 142.152 112.029z" />
<glyph unicode="&#xe94f;" glyph-name="chevron-down" d="M674.186 557.714l57.242-85.333-190.807-160c-15.265-12.8-35.681-14.080-51.976-3.84l-5.266 3.84-190.807 160 57.242 85.333 162.186-136 162.186 136z" />
<glyph unicode="&#xe950;" glyph-name="chevron-left-outline" d="M658.286 596.847l-98.874 70.582-144.73-183.672-3.885-5.606c-12.703-21.439-11.004-47.012 3.885-65.907l144.73-183.672 98.874 70.582-117.291 148.847 117.291 148.847zM565.914 622.306l45.008-32.138-112.007-142.168 112.007-142.152-44.991-32.138-125.051 158.691c-6.542 8.303-7.276 19.345-1.997 28.284l2.645 3.795 124.386 157.826z" />
<glyph unicode="&#xe951;" glyph-name="chevron-left" d="M621.714 285.814l-85.333-57.242-160 190.807c-12.8 15.265-14.080 35.681-3.84 51.976l3.84 5.266 160 190.807 85.333-57.242-136-162.186 136-162.186z" />
<glyph unicode="&#xe952;" glyph-name="chevron-right-outline" d="M645.89 483.757l-144.73 183.672-98.874-70.582 117.274-148.847-117.274-148.847 98.874-70.582 144.73 183.672 3.885 5.606c12.703 21.439 11.004 47.012-3.885 65.907zM449.633 590.168l44.991 32.138 125.068-158.707c6.542-8.303 7.276-19.345 1.997-28.284l-2.645-3.795-124.403-157.809-45.008 32.138 112.024 142.152-112.024 142.168z" />
<glyph unicode="&#xe953;" glyph-name="chevron-right" d="M402.286 610.186l85.333 57.242 160-190.807c12.8-15.265 14.080-35.681 3.84-51.976l-3.84-5.266-160-190.807-85.333 57.242 136 162.186-136 162.186z" />
<glyph unicode="&#xe954;" glyph-name="chevron-up-outline" d="M477.124 545.871l-0.881-0.648-183.672-144.673 70.582-98.836 148.847 117.256 148.847-117.256 70.582 98.836-183.672 144.673c-18.895 14.883-44.468 16.582-64.978 4.476l-5.654-3.828zM686.289 394.044l-32.138-44.99-142.152 111.969-142.168-111.969-32.138 44.99 158.311 124.681 4.24 2.898c8.010 4.685 19.052 3.951 27.354-2.588l158.691-124.991z" />
<glyph unicode="&#xe955;" glyph-name="chevron-up" d="M674.186 338.286l57.242 85.333-190.807 160c-15.265 12.8-35.681 14.080-51.976 3.84l-5.266-3.84-190.807-160 57.242-85.333 162.186 136 162.186-136z" />
<glyph unicode="&#xe956;" glyph-name="circle-outline" d="M512 886.857c242.374 0 438.857-196.483 438.857-438.857s-196.483-438.857-438.857-438.857c-242.374 0-438.857 196.483-438.857 438.857s196.483 438.857 438.857 438.857zM512 795.429c-191.88 0-347.429-155.549-347.429-347.429s155.549-347.429 347.429-347.429c191.88 0 347.429 155.549 347.429 347.429s-155.549 347.429-347.429 347.429z" />
<glyph unicode="&#xe957;" glyph-name="circle" d="M950.857 448c0-242.374-196.483-438.857-438.857-438.857s-438.857 196.483-438.857 438.857c0 242.374 196.483 438.857 438.857 438.857s438.857-196.483 438.857-438.857z" />
<glyph unicode="&#xe958;" glyph-name="clear-circle-outline" d="M512 886.857c242.374 0 438.857-196.483 438.857-438.857s-196.483-438.857-438.857-438.857c-242.374 0-438.857 196.483-438.857 438.857s196.483 438.857 438.857 438.857zM512 813.714c-201.978 0-365.714-163.736-365.714-365.714s163.736-365.714 365.714-365.714c201.978 0 365.714 163.736 365.714 365.714s-163.736 365.714-365.714 365.714zM389.304 625.218c-7.516 7.516-19.702 7.516-27.219 0l-27.304-27.304c-7.516-7.516-7.516-19.702 0-27.219l122.69-122.696-122.691-122.697c-7.516-7.516-7.516-19.702 0-27.219l27.304-27.304c7.516-7.516 19.702-7.516 27.219 0l122.697 122.691 122.697-122.691c7.516-7.516 19.702-7.516 27.219 0l27.304 27.304c7.516 7.516 7.516 19.702 0 27.219l-122.691 122.697 122.691 122.697c7.516 7.516 7.516 19.702 0 27.219l-27.304 27.304c-7.516 7.516-19.702 7.516-27.219 0l-122.697-122.691-122.696 122.69z" />
<glyph unicode="&#xe959;" glyph-name="clear-circle" d="M512 886.857c242.374 0 438.857-196.483 438.857-438.857s-196.483-438.857-438.857-438.857c-242.374 0-438.857 196.483-438.857 438.857s196.483 438.857 438.857 438.857zM389.304 625.218c-7.516 7.516-19.702 7.516-27.219 0l-27.304-27.304c-7.516-7.516-7.516-19.702 0-27.219l122.69-122.696-122.691-122.697c-7.516-7.516-7.516-19.702 0-27.219l27.304-27.304c7.516-7.516 19.702-7.516 27.219 0l122.697 122.691 122.697-122.691c7.516-7.516 19.702-7.516 27.219 0l27.304 27.304c7.516 7.516 7.516 19.702 0 27.219l-122.691 122.697 122.691 122.697c7.516 7.516 7.516 19.702 0 27.219l-27.304 27.304c-7.516 7.516-19.702 7.516-27.219 0l-122.697-122.691z" />
<glyph unicode="&#xe95a;" glyph-name="clear-outline" d="M337.502 740.16l6.836-0.861 166.285-148.87 125.542 125.539c14.272 14.277 32.86 22.757 52.444 24.465 24.157 0.344 40.823-4.709 56.215-15.363l5.092-3.759 29.876-29.336c16.055-16.060 24.779-37.58 24.779-59.84 0-16.229-4.555-32.208-14.76-47.496l-4.723-6.508-129.536-129.986 124.241-124.259c14.272-14.277 22.75-32.87 24.458-52.46 0.344-24.164-4.708-40.836-15.358-56.232l-3.758-5.093-29.327-29.886c-16.055-16.060-37.568-24.786-59.821-24.786-16.223 0-32.196 4.555-47.478 14.762l-6.506 4.724-130.011 129.58-124.158-124.279c-14.272-14.277-32.86-22.757-52.444-24.465-24.157-0.344-40.823 4.709-56.215 15.363l-5.092 3.759-29.876 29.336c-16.055 16.060-24.779 37.58-24.779 59.84 0 16.227 4.554 32.204 14.756 47.49l4.722 6.508 129.479 130.055-124.178 124.196c-14.272 14.277-22.75 32.87-24.458 52.46-0.344 24.164 4.708 40.836 15.358 56.232l3.758 5.093 29.327 29.886c17.782 17.788 42.184 26.682 69.31 24.192zM696.030 678.491l-184.047-184.093-187.554 180.49-42.75-42.684 184.042-184.077-184.013-184.013 46.229-46.388 184.028 184.106 183.956-184.069 46.373 46.242-184.048 184.118 184.013 183.981-46.229 46.388z" />
<glyph unicode="&#xe95b;" glyph-name="clear" d="M707.486 704c8.965 0 17.93-3.42 24.77-10.26v0l25.484-25.484c6.84-6.84 10.26-15.805 10.26-24.77s-3.42-17.93-10.262-24.772v0l-170.741-170.683 170.743-170.748c6.84-6.84 10.26-15.805 10.26-24.77s-3.42-17.93-10.26-24.77v0l-25.484-25.484c-6.84-6.84-15.805-10.26-24.77-10.26s-17.93 3.42-24.77 10.26v0l-170.748 170.743-170.685-170.743c-6.84-6.84-15.805-10.26-24.77-10.26s-17.93 3.42-24.77 10.26v0l-25.484 25.484c-6.84 6.84-10.26 15.805-10.26 24.77s3.42 17.93 10.259 24.769v0l170.713 170.749-170.712 170.685c-6.84 6.84-10.26 15.805-10.26 24.77s3.42 17.93 10.26 24.77v0l25.484 25.484c8.832 8.832 21.208 11.962 32.552 9.39v0l187.441-180.333 170.98 170.944c6.84 6.84 15.805 10.26 24.77 10.26z" />
<glyph unicode="&#xe95c;" glyph-name="clock-1" d="M512 886.857c242.374 0 438.857-196.483 438.857-438.857s-196.483-438.857-438.857-438.857c-242.374 0-438.857 196.483-438.857 438.857s196.483 438.857 438.857 438.857zM493.056 416.731l0.658-0.403 158.359-91.429c17.492-10.099 39.859-4.106 49.958 13.386s4.106 39.859-13.386 49.958l-140.077 80.895 0.003 271.433c0 20.198-16.374 36.571-36.571 36.571s-36.571-16.374-36.571-36.571l-0.003-292.986c0.011-0.919 0.057-1.835 0.139-2.76 0.052-0.602 0.118-1.2 0.2-1.782l0.129-0.867 0.146-0.867c0.157-0.849 0.343-1.687 0.568-2.521 0.093-0.356 0.191-0.71 0.284-1.062 0.264-0.903 0.561-1.791 0.894-2.647 0.205-0.545 0.424-1.085 0.658-1.645 0.284-0.653 0.586-1.296 0.899-1.907l0.425-0.818 0.452-0.82c0.402-0.703 0.826-1.392 1.259-2.052 0.215-0.327 0.436-0.65 0.678-0.982 0.57-0.803 1.171-1.582 1.792-2.336 0.199-0.238 0.402-0.474 0.617-0.704 0.658-0.746 1.346-1.465 2.039-2.145l0.561-0.527 0.576-0.513c0.663-0.588 1.347-1.152 2.056-1.698l1.147-0.84 2.11-1.362z" />
<glyph unicode="&#xe95d;" glyph-name="clock-add-outline" d="M512 923.429c242.374 0 438.857-196.483 438.857-438.857 0-35.116-4.125-69.27-11.916-102.001 52.209-46.861 85.058-114.879 85.058-190.57 0-141.385-114.615-256-256-256-87.965 0-165.568 44.367-211.652 111.944-14.567-1.48-29.37-2.23-44.348-2.23-242.374 0-438.857 196.483-438.857 438.857s196.483 438.857 438.857 438.857zM768 374.857c-100.989 0-182.857-81.868-182.857-182.857s81.868-182.857 182.857-182.857c100.989 0 182.857 81.868 182.857 182.857s-81.868 182.857-182.857 182.857zM768 301.714c-20.198 0-36.571-16.374-36.571-36.571v-36.571h-36.571c-20.198 0-36.571-16.374-36.571-36.571s16.374-36.571 36.571-36.571h36.571v-36.571c0-20.198 16.374-36.571 36.571-36.571s36.571 16.374 36.571 36.571v36.571h36.571c20.198 0 36.571 16.374 36.571 36.571s-16.374 36.571-36.571 36.571h-36.571v36.571c0 20.198-16.374 36.571-36.571 36.571zM512 850.286c-201.978 0-365.714-163.736-365.714-365.714s163.736-365.714 365.714-365.714c3.547 0 7.081 0.050 10.603 0.151-6.911 23.101-10.603 47.615-10.603 72.992 0 79.202 35.967 150.003 92.459 196.961l-111.403 64.342-2.11 1.362-1.147 0.84c-0.709 0.546-1.394 1.11-2.056 1.698l-0.576 0.513-0.561 0.527c-0.693 0.68-1.381 1.399-2.039 2.145-0.216 0.23-0.418 0.466-0.617 0.704-0.621 0.754-1.222 1.533-1.792 2.336-0.242 0.332-0.463 0.655-0.678 0.982-0.433 0.661-0.857 1.349-1.259 2.052l-0.452 0.82-0.425 0.818c-0.313 0.61-0.616 1.253-0.899 1.907-0.234 0.56-0.453 1.1-0.658 1.645-0.333 0.856-0.631 1.744-0.894 2.647-0.093 0.351-0.191 0.706-0.284 1.062-0.225 0.834-0.412 1.672-0.568 2.521l-0.146 0.867-0.129 0.867c-0.082 0.582-0.148 1.18-0.2 1.782-0.082 0.925-0.128 1.842-0.139 2.76l0.003 292.986c0 20.198 16.374 36.571 36.571 36.571s36.571-16.374 36.571-36.571l-0.003-271.433 128.633-74.279c28.22 10.708 58.825 16.569 90.799 16.569 37.4 0 72.926-8.020 104.953-22.434 3.138 19.169 4.761 38.898 4.761 59.005 0 201.978-163.736 365.714-365.714 365.714z" />
<glyph unicode="&#xe95e;" glyph-name="clock-add" d="M768 448c141.385 0 256-114.615 256-256s-114.615-256-256-256c-141.385 0-256 114.615-256 256s114.615 256 256 256zM768 338.286c-20.198 0-36.571-16.374-36.571-36.571v-73.143h-73.143c-20.198 0-36.571-16.374-36.571-36.571s16.374-36.571 36.571-36.571h73.143v-73.143c0-20.198 16.374-36.571 36.571-36.571s36.571 16.374 36.571 36.571v73.143h73.143c20.198 0 36.571 16.374 36.571 36.571s-16.374 36.571-36.571 36.571h-73.143v73.143c0 20.198-16.374 36.571-36.571 36.571zM512 923.429c-242.374 0-438.857-196.483-438.857-438.857 0-228.955 175.329-416.96 399.044-437.065-21.347 43.62-33.33 92.657-33.33 144.494 0 92.237 37.94 175.612 99.066 235.371l-44.866 25.932-2.11 1.362-1.147 0.84c-0.709 0.546-1.394 1.11-2.056 1.698l-0.576 0.513-0.561 0.527c-0.693 0.68-1.381 1.399-2.039 2.145-0.216 0.23-0.418 0.466-0.617 0.704-0.621 0.754-1.222 1.533-1.792 2.336-0.242 0.332-0.463 0.655-0.678 0.982-0.433 0.661-0.857 1.349-1.259 2.052l-0.452 0.82-0.425 0.818c-0.313 0.61-0.616 1.253-0.899 1.907-0.234 0.56-0.453 1.1-0.658 1.645-0.333 0.856-0.631 1.744-0.894 2.647-0.093 0.351-0.191 0.706-0.284 1.062-0.225 0.834-0.412 1.672-0.568 2.521l-0.146 0.867-0.129 0.867c-0.082 0.582-0.148 1.18-0.2 1.782-0.082 0.925-0.128 1.842-0.139 2.76l0.003 292.986c0 20.198 16.374 36.571 36.571 36.571s36.571-16.374 36.571-36.571l-0.003-271.433 52.191-30.161c49.011 28.97 106.185 45.595 167.241 45.595 67.493 0 130.242-20.315 182.469-55.208 0.258 6.18 0.389 12.393 0.389 18.636 0 242.374-196.483 438.857-438.857 438.857z" />
<glyph unicode="&#xe95f;" glyph-name="clock-crossed-outline" d="M950.857 448c0 73.931-18.281 143.592-50.569 204.709l-56.263-51.18c21.623-46.684 33.69-98.697 33.69-153.529 0-201.978-163.736-365.714-365.714-365.714-67.246 0-130.252 18.149-184.389 49.817l-56.247-51.163c69.099-45.391 151.784-71.797 240.636-71.797 242.374 0 438.857 196.483 438.857 438.857zM941.346 838.315c-13.587 14.945-36.716 16.047-51.661 2.46l-804.571-731.429c-14.945-13.587-16.047-36.716-2.46-51.661s36.716-16.047 51.661-2.46l804.571 731.429c14.945 13.587 16.047 36.716 2.46 51.661zM512 886.857c-242.374 0-438.857-196.483-438.857-438.857 0-73.945 18.288-143.619 50.589-204.745l56.261 51.18c-21.634 46.694-33.707 98.72-33.707 153.566 0 201.978 163.736 365.714 365.714 365.714 67.246 0 130.252-18.149 184.389-49.817l56.284 51.139c-69.106 45.406-151.805 71.821-240.672 71.821zM640.146 416.256l-56.832-51.675 68.759-39.681c17.492-10.099 39.859-4.106 49.958 13.386s4.106 39.859-13.386 49.958l-48.499 28.013zM512 777.143c-20.198 0-36.571-16.374-36.571-36.571v-177.554l73.143 66.487v111.067c0 20.198-16.374 36.571-36.571 36.571z" />
<glyph unicode="&#xe960;" glyph-name="clock-crossed" d="M950.857 448c0 73.931-18.281 143.592-50.569 204.709l-260.142-236.453 48.499-28.013c17.492-10.099 23.485-32.466 13.386-49.958l-2.346-3.571c-10.924-14.695-31.369-19.193-47.612-9.815l-68.759 39.681-311.95-283.641c69.099-45.391 151.784-71.797 240.636-71.797 242.374 0 438.857 196.483 438.857 438.857zM941.346 838.315c-13.587 14.945-36.716 16.047-51.661 2.46l-804.571-731.429c-14.945-13.587-16.047-36.716-2.46-51.661s36.716-16.047 51.661-2.46l804.571 731.429c14.945 13.587 16.047 36.716 2.46 51.661zM512 886.857c-242.374 0-438.857-196.483-438.857-438.857 0-73.945 18.288-143.619 50.589-204.745l351.697 319.763v177.554c0 20.198 16.374 36.571 36.571 36.571l4.265-0.246c18.188-2.113 32.306-17.57 32.306-36.325v-111.067l204.101 185.533c-69.106 45.406-151.805 71.821-240.672 71.821z" />
<glyph unicode="&#xe961;" glyph-name="clock-outline" d="M512 886.857c242.374 0 438.857-196.483 438.857-438.857s-196.483-438.857-438.857-438.857c-242.374 0-438.857 196.483-438.857 438.857s196.483 438.857 438.857 438.857zM512 813.714c-201.978 0-365.714-163.736-365.714-365.714s163.736-365.714 365.714-365.714c201.978 0 365.714 163.736 365.714 365.714s-163.736 365.714-365.714 365.714zM490.946 418.093l2.11-1.362 159.017-91.832c17.492-10.099 39.859-4.106 49.958 13.386s4.106 39.859-13.386 49.958l-140.077 80.895 0.003 271.433c0 20.198-16.374 36.571-36.571 36.571s-36.571-16.374-36.571-36.571l-0.003-292.986c0.011-0.919 0.057-1.835 0.139-2.76 0.052-0.602 0.118-1.2 0.2-1.782l0.129-0.867 0.146-0.867c0.157-0.849 0.343-1.687 0.568-2.521 0.093-0.356 0.191-0.71 0.284-1.062 0.264-0.903 0.561-1.791 0.894-2.647 0.205-0.545 0.424-1.085 0.658-1.645 0.284-0.653 0.586-1.296 0.899-1.907l0.425-0.818 0.452-0.82c0.402-0.703 0.826-1.392 1.259-2.052 0.215-0.327 0.436-0.65 0.678-0.982 0.57-0.803 1.171-1.582 1.792-2.336 0.199-0.238 0.402-0.474 0.617-0.704 0.658-0.746 1.346-1.465 2.039-2.145l0.561-0.527 0.576-0.513c0.663-0.588 1.347-1.152 2.056-1.698l1.147-0.84z" />
<glyph unicode="&#xe962;" glyph-name="clock-subtract-outline" d="M512 923.429c242.374 0 438.857-196.483 438.857-438.857 0-35.116-4.125-69.27-11.916-102.001 52.209-46.861 85.058-114.879 85.058-190.57 0-141.385-114.615-256-256-256-87.965 0-165.568 44.367-211.652 111.944-14.567-1.48-29.37-2.23-44.348-2.23-242.374 0-438.857 196.483-438.857 438.857s196.483 438.857 438.857 438.857zM768 374.857c-100.989 0-182.857-81.868-182.857-182.857s81.868-182.857 182.857-182.857c100.989 0 182.857 81.868 182.857 182.857s-81.868 182.857-182.857 182.857zM512 850.286c-201.978 0-365.714-163.736-365.714-365.714s163.736-365.714 365.714-365.714c3.547 0 7.081 0.050 10.603 0.151-6.911 23.101-10.603 47.615-10.603 72.992 0 79.202 35.967 150.003 92.459 196.961l-111.403 64.342-2.11 1.362-1.147 0.84c-0.709 0.546-1.394 1.11-2.056 1.698l-0.576 0.513-0.561 0.527c-0.693 0.68-1.381 1.399-2.039 2.145-0.216 0.23-0.418 0.466-0.617 0.704-0.621 0.754-1.222 1.533-1.792 2.336-0.242 0.332-0.463 0.655-0.678 0.982-0.433 0.661-0.857 1.349-1.259 2.052l-0.452 0.82-0.425 0.818c-0.313 0.61-0.616 1.253-0.899 1.907-0.234 0.56-0.453 1.1-0.658 1.645-0.333 0.856-0.631 1.744-0.894 2.647-0.093 0.351-0.191 0.706-0.284 1.062-0.225 0.834-0.412 1.672-0.568 2.521l-0.146 0.867-0.129 0.867c-0.082 0.582-0.148 1.18-0.2 1.782-0.082 0.925-0.128 1.842-0.139 2.76l0.003 292.986c0 20.198 16.374 36.571 36.571 36.571s36.571-16.374 36.571-36.571l-0.003-271.433 128.633-74.279c28.22 10.708 58.825 16.569 90.799 16.569 37.4 0 72.926-8.020 104.953-22.434 3.138 19.169 4.761 38.898 4.761 59.005 0 201.978-163.736 365.714-365.714 365.714zM841.143 228.571h-146.286c-20.198 0-36.571-16.374-36.571-36.571s16.374-36.571 36.571-36.571h146.286c20.198 0 36.571 16.374 36.571 36.571s-16.374 36.571-36.571 36.571z" />
<glyph unicode="&#xe963;" glyph-name="clock-subtract" d="M768 448c141.385 0 256-114.615 256-256s-114.615-256-256-256c-141.385 0-256 114.615-256 256s114.615 256 256 256zM512 923.429c-242.374 0-438.857-196.483-438.857-438.857 0-228.955 175.329-416.96 399.044-437.065-21.347 43.62-33.33 92.657-33.33 144.494 0 92.237 37.94 175.612 99.066 235.371l-44.866 25.932-2.11 1.362-1.147 0.84c-0.709 0.546-1.394 1.11-2.056 1.698l-0.576 0.513-0.561 0.527c-0.693 0.68-1.381 1.399-2.039 2.145-0.216 0.23-0.418 0.466-0.617 0.704-0.621 0.754-1.222 1.533-1.792 2.336-0.242 0.332-0.463 0.655-0.678 0.982-0.433 0.661-0.857 1.349-1.259 2.052l-0.452 0.82-0.425 0.818c-0.313 0.61-0.616 1.253-0.899 1.907-0.234 0.56-0.453 1.1-0.658 1.645-0.333 0.856-0.631 1.744-0.894 2.647-0.093 0.351-0.191 0.706-0.284 1.062-0.225 0.834-0.412 1.672-0.568 2.521l-0.146 0.867-0.129 0.867c-0.082 0.582-0.148 1.18-0.2 1.782-0.082 0.925-0.128 1.842-0.139 2.76l0.003 292.986c0 20.198 16.374 36.571 36.571 36.571s36.571-16.374 36.571-36.571l-0.003-271.433 52.191-30.161c49.011 28.97 106.185 45.595 167.241 45.595 67.493 0 130.242-20.315 182.469-55.208 0.258 6.18 0.389 12.393 0.389 18.636 0 242.374-196.483 438.857-438.857 438.857zM877.714 228.571h-219.429c-20.198 0-36.571-16.374-36.571-36.571s16.374-36.571 36.571-36.571h219.429c20.198 0 36.571 16.374 36.571 36.571s-16.374 36.571-36.571 36.571z" />
<glyph unicode="&#xe964;" glyph-name="clock" d="M512 886.857c242.374 0 438.857-196.483 438.857-438.857s-196.483-438.857-438.857-438.857c-242.374 0-438.857 196.483-438.857 438.857s196.483 438.857 438.857 438.857zM493.056 416.731l0.658-0.403 158.359-91.429c17.492-10.099 39.859-4.106 49.958 13.386s4.106 39.859-13.386 49.958l-140.077 80.895 0.003 271.433c0 20.198-16.374 36.571-36.571 36.571s-36.571-16.374-36.571-36.571l-0.003-292.986c0.011-0.919 0.057-1.835 0.139-2.76 0.052-0.602 0.118-1.2 0.2-1.782l0.129-0.867 0.146-0.867c0.157-0.849 0.343-1.687 0.568-2.521 0.093-0.356 0.191-0.71 0.284-1.062 0.264-0.903 0.561-1.791 0.894-2.647 0.205-0.545 0.424-1.085 0.658-1.645 0.284-0.653 0.586-1.296 0.899-1.907l0.425-0.818 0.452-0.82c0.402-0.703 0.826-1.392 1.259-2.052 0.215-0.327 0.436-0.65 0.678-0.982 0.57-0.803 1.171-1.582 1.792-2.336 0.199-0.238 0.402-0.474 0.617-0.704 0.658-0.746 1.346-1.465 2.039-2.145l0.561-0.527 0.576-0.513c0.663-0.588 1.347-1.152 2.056-1.698l1.147-0.84 2.11-1.362z" />
<glyph unicode="&#xe965;" glyph-name="close-outline" d="M166.718 743.957l-4.075-4.437c-23.092-27.407-21.733-68.407 4.075-94.215l197.257-197.27-197.259-197.342c-27.24-27.24-27.24-71.408 0.002-98.65l49.326-49.326 4.437-4.075c27.407-23.092 68.407-21.733 94.215 4.075l197.269 197.362 197.338-197.361c27.243-27.243 71.411-27.243 98.653-0.001l49.326 49.326 4.075 4.437c23.092 27.407 21.733 68.407-4.075 94.215l-197.362 197.339 197.36 197.268c27.244 27.244 27.244 71.412 0.002 98.654l-49.326 49.326-4.437 4.075c-27.407 23.092-68.407 21.733-94.215-4.075l-197.339-197.257-197.269 197.257c-27.242 27.242-71.41 27.242-98.652 0l-49.326-49.326zM511.989 497.359l246.641 246.597 49.326-49.326-246.658-246.62 246.658-246.641-49.326-49.326-246.641 246.658-246.62-246.658-49.326 49.326 246.597 246.641-246.597 246.62 49.326 49.326 246.62-246.597z" />
<glyph unicode="&#xe966;" glyph-name="close" d="M291.128 767.019l220.872-220.862 220.872 220.862c13.529 13.529 35.464 13.529 48.993 0l49.154-49.154c13.529-13.529 13.529-35.464 0-48.993l-220.862-220.872 220.862-220.872c13.529-13.529 13.529-35.464 0-48.993l-49.154-49.154c-13.529-13.529-35.464-13.529-48.993 0l-220.872 220.862-220.872-220.862c-13.529-13.529-35.464-13.529-48.993 0l-49.154 49.154c-13.529 13.529-13.529 35.464 0 48.993l220.862 220.872-220.862 220.872c-13.529 13.529-13.529 35.464 0 48.993l49.154 49.154c13.529 13.529 35.464 13.529 48.993 0z" />
<glyph unicode="&#xe967;" glyph-name="code-outline" d="M266.712 656.717l51.72-51.72-156.968-156.997 156.968-156.997-51.72-51.72-182.857 182.857c-13.183 13.183-14.198 33.928-3.042 48.275l3.042 3.445 182.857 182.857zM757.288 656.717l182.857-182.857c13.183-13.183 14.198-33.928 3.042-48.275l-3.042-3.445-182.857-182.857-51.72 51.72 156.968 156.997-156.968 156.997 51.72 51.72zM549.442 785.076l71.401-15.867-146.286-658.286-71.401 15.867 146.286 658.286z" />
<glyph unicode="&#xe968;" glyph-name="code" d="M73.143 886.857h877.714v-877.714h-877.714v877.714z" />
</font>
</defs>
</svg>
